找回密码

查看: 2142|回复: 3

[2160p] 敦刻尔克[国英多音轨/简繁英字幕].Dunkirk.2017.iMAX.UHD.BluRay.2160p.2Audio.DTS-HD.MA.5.1.x265.10bit.HDR-ALT 18.11GB

[复制链接]
蓝光币
9
发表于 2022-7-23 15:24:07 | 显示全部楼层 |阅读模式


◎标  题 敦刻尔克
◎译  名 邓寇克大行动(港) / 敦克尔克大行动(台) / 敦刻尔克大退却
◎片  名 Dunkirk
◎年  代 2017
◎产  地 英国 / 法国 / 美国 / 荷兰
◎类  别 剧情 / 历史 / 战争
◎语  言 英语 / 法语 / 德语
◎上映日期 2017-09-01(中国大陆) / 2017-07-13(伦敦首映) / 2017-07-21(美国)
◎IMDb评分 7.8/10 (606538人评价)
◎IMDb链接 https://www.imdb.com/title/tt5013056/
◎豆瓣评分 8.4/10 (628631人评价)
◎豆瓣链接 https://movie.douban.com/subject/26607693/
◎片  长 107分钟
◎导  演 克里斯托弗·诺兰 Christopher Nolan
◎编  剧 克里斯托弗·诺兰 Christopher Nolan
◎演  员 菲恩·怀特海德 Fionn Whitehead
       汤姆·格林-卡尼 Tom Glynn-Carney
       杰克·劳登 Jack Lowden
       哈里·斯泰尔斯 Harry Styles
       阿奈林·巴纳德 Aneurin Barnard
       汤姆·哈迪 Tom Hardy
       马克·里朗斯 Mark Rylance
       巴里·基奥恩 Barry Keoghan
       基里安·墨菲 Cillian Murphy
       詹姆斯·达西 James D'Arcy
       肯尼思·布拉纳 Kenneth Branagh
       李·阿姆斯特朗 Lee Armstrong
       詹姆斯·布鲁尔 James Bloor
       达米安·勃纳尔 Damien Bonnard
       布莱恩·威纳尔 Brian Vernel
       哈利·理查森 Harry Richardson
       艾略特·提特恩索 Elliott Tittensor
       凯文·格思里 Kevin Guthrie
       巴比·洛克伍德 Bobby Lockwood
       米歇尔·贝尔 Michel Biel
       比利·豪尔 Billy Howle
       迈克尔·凯恩 Michael Caine
       约翰·诺兰 John Nolan
       米兰达·诺兰 Miranda Nolan
       马修·马什 Matthew Marsh
       布莱德利·豪尔 Bradley Hall
       杰克·卡特莫尔-斯科特 Jack Cutmore-Scott
       威尔·阿滕伯勒 Will Attenborough
        
       理查德·桑德森 Richard Sanderson
       金·哈特曼 Kim Hartman
       查理·帕尔默·罗斯韦尔 Charley Palmer Rothwell
       卡勒姆·布雷克 Callum Blake
       卢克·汤普森 Luke Thompson
       哈利·柯勒特 Harry Collett
       迈克尔·福克斯 Michael Fox
       卡拉姆·林奇 Calam Lynch
       比尔·米尔纳 Bill Milner
       克里斯托弗·诺兰 Christopher Nolan
       艾玛·托马斯 Emma Thomas
       汉斯·季默 Hans Zimmer
       霍伊特·范·霍特玛 Hoyte Van Hoytema
       李·史姑娘 Lee Smith
       杰弗里·库兰 Jeffrey Kurland
       理查德·金 Richard King
◎标  签 二战 / 战争 / 历史 / 实在事务改编 / 英国 / 军事 / 人性 / 剧情
◎简  介
  故事改编自著名的二战军事事务“敦刻尔克大退却”。二战早期,40万英法盟军被敌军围困于敦刻尔克的海滩之上,面临敌军步步逼近的绝境,情势万分危机。英国政府和水兵策动多量船员,带动群众起来救援军队。                                    
                                英国兵士汤米(菲昂·怀特海德 Fionn Whitehead 饰)在逃离海滩的进程中相继结识吉布森与亚历克斯,同时民用船主道森师长(马克·里朗斯 Mark Rylance 饰)与儿子彼得、17岁少年乔治也分开英国,去往敦刻尔克拯救兵士。三人连续搭救了水兵(基里安·墨菲 Cillian Murphy 饰)、飞翔员柯林斯及汤米一行人,而战役机飞翔员法瑞尔(汤姆·哈迪 Tom Hardy 饰)则在被仇敌双面夹攻的艰难情形下顽强战役。                                    
                                影片的故事从陆、海、空三个角度报告,在德国军队的包围下,每小我不能不为自己的命运破釜沉舟,才有能够在世回家。
  1. ##### MediaInfo ######
  2. General
  3. Unique ID                                : 151075796903573490880709568445700162174 (0x71A823DE6FFAB8CC1E7CD47E28C8C27E)
  4. Complete name                            : Dunkirk.2017.iMAX.UHD.BluRay.2160p.2Audio.DTS-HD.MA.5.1.x265.10bit.HDR-ALT.mkv
  5. Format                                   : Matroska
  6. Format version                           : Version 4
  7. File size                                : 18.1 GiB
  8. Duration                                 : 1 h 46 min
  9. Overall bit rate mode                    : Variable
  10. Overall bit rate                         : 24.3 Mb/s
  11. Encoded date                             : UTC 2020-02-05 07:17:51
  12. Writing application                      : mkvmerge v43.0.0 ('The Quartermaster') 64-bit
  13. Writing library                          : libebml v1.3.10 + libmatroska v1.5.2
  14. Video
  15. ID                                       : 1
  16. Format                                   : HEVC
  17. Format/Info                              : High Efficiency Video Coding
  18. Format profile                           : Main 10@L5.1@High
  19. HDR format                               : SMPTE ST 2086, HDR10 compatible
  20. Codec ID                                 : V_MPEGH/ISO/HEVC
  21. Duration                                 : 1 h 46 min
  22. Bit rate                                 : 21.4 Mb/s
  23. Width                                    : 3 840 pixels
  24. Height                                   : 2 160 pixels
  25. Display aspect ratio                     : 16:9
  26. Frame rate mode                          : Constant
  27. Frame rate                               : 23.976 (24000/1001/53875) FPS
  28. Color space                              : YUV
  29. Chroma subsampling                       : 4:2:0 (Type 2)
  30. Bit depth                                : 10 bits
  31. Bits/(Pixel*Frame)                       : 0.108
  32. Stream size                              : 15.9 GiB (88%)
  33. Title                                    : HEVC, x265Main10@L5.1@High, 24/1.001 fps @ 21388 kbps
  34. Writing library                          : x265 3.0_Au+4-dcbec33bfb0f:[Windows][GCC 8.2.1][64 bit] 10bit
  35. Encoding settings                        : cpuid=538751111039 / frame-threads=4 / numa-pools=12,12 / wpp / pmode / pme / no-psnr / no-ssim / log-level=2 / input-csp=1 / input-res=3840x2160 / interlace=0 / total-frames=153404 / level-idc=51 / high-tier=1 / uhd-bd=0 / ref=4 / no-allow-non-conformance / repeat-headers / annexb / no-aud / hrd / info / hash=0 / no-temporal-layers / no-open-gop / min-keyint=24 / keyint=240 / gop-lookahead=0 / bframes=8 / b-adapt=2 / b-pyramid / bframe-bias=0 / rc-lookahead=25 / lookahead-slices=0 / NTM4NzU=uuDQuD2mJt9fsCf / scenecut=40 / radl=0 / no-splice / no-intra-refresh / ctu=64 / min-cu-size=8 / no-rect / no-amp / max-tu-size=32 / tu-inter-depth=3 / tu-intra-depth=3 / limit-tu=4 / rdoq-level=2 / dynamic-rd=0.00 / no-ssim-rd / signhide / no-tskip / nr-intra=0 / nr-inter=0 / no-constrained-intra / no-strong-intra-smoothing / max-merge=4 / limit-refs=1 / limit-modes / me=3 / subme=4 / merange=25 / temporal-mvp / weightp / weightb / no-analyze-src-pics / deblock=-3:-3 / no-sao / no-sao-non-deblock / rd=6 / no-early-skip / rskip / no-fast-intra / no-tskip-fast / no-cu-lossless / b-intra / no-splitrd-skip / rdpenalty=0 / psy-rd=2.00 / psy-rdoq=1.00 / no-rd-refine / no-lossless / cbqpoffs=0 / crqpoffs=0 / rc=crf / crf=17.0 / qcomp=0.65 / qpstep=4 / stats-write=0 / stats-read=0 / vbv-maxrate=160000 / vbv-bufsize=160000 / vbv-init=0.9 / crf-max=0.0 / crf-min=0.0 / ipratio=1.30 / pbratio=1.20 / aq-mode=3 / aq-strength=0.85 / cutree / zone-count=0 / no-strict-cbr / qg-size=32 / no-rc-grain / qpmax=69 / qpmin=0 / no-const-vbv / sar=1 / overscan=0 / videoformat=5 / range=0 / colorprim=9 / transfer=16 / colormatrix=9 / chromaloc=1 / chromaloc-top=2 / chromaloc-bottom=2 / display-window=0 / master-display=G(13250,34500)B(7500,3000)R(34000,16000)WP(15635,16450)L(40000000,50) / max-cll=323,144 / min-luma=0 / max-luma=1023 / log2-max-poc-lsb=8 / vui-timing-info / vui-hrd-info / slices=1 / no-opt-qp-pps / no-opt-ref-list-length-pps / no-multi-pass-opt-rps / scenecut-bias=0.05 / no-opt-cu-delta-qp / no-aq-motion / hdr / hdr-opt / no-dhdr10-opt / no-idr-recovery-sei / analysis-reuse-level=5 / scale-factor=0 / refine-intra=0 / refine-inter=0 / refine-mv=0 / refine-ctu-distortion=0 / no-limit-sao / ctu-info=0 / no-lowpass-dct / refine-analysis-type=0 / copy-pic=1 / max-ausize-factor=1.0 / no-dynamic-refine / no-single-sei / no-hevc-aq / qp-adaptation-range=1.00
  36. Language                                 : English
  37. Default                                  : Yes
  38. Forced                                   : No
  39. Color range                              : Limited
  40. Color primaries                          : BT.2020
  41. Transfer characteristics                 : PQ
  42. Matrix coefficients                      : BT.2020 non-constant
  43. Mastering display color primaries        : Display P3
  44. Mastering display luminance              : min: 0.0050 cd/m2, max: 4000 cd/m2
  45. Maximum Content Light Level              : 323 cd/m2
  46. Maximum Frame-Average Light Level        : 144 cd/m2
  47. Audio #1
  48. ID                                       : 2
  49. Format                                   : DTS XLL
  50. Format/Info                              : Digital Theater Systems
  51. Commercial name                          : DTS-HD Master Audio
  52. Codec ID                                 : A_DTS
  53. Duration                                 : 1 h 46 min
  54. Bit rate mode                            : Variable
  55. Bit rate                                 : 2 411 kb/s
  56. Channel(s)                               : 6 channels
  57. Channel layout                           : C L R Ls Rs LFE
  58. Sampling rate                            : 48.0 kHz
  59. Frame rate                               : 93.750 FPS (512 SPF)
  60. Bit depth                                : 16 bits
  61. Compression mode                         : Lossless
  62. Stream size                              : 1.80 GiB (10%)
  63. Title                                    : English DTS-HD Master Audio 5.1 @ 2411 kbps
  64. Language                                 : English
  65. Default                                  : Yes
  66. Forced                                   : No
  67. Audio #2
  68. ID                                       : 3
  69. Format                                   : AC-3
  70. Format/Info                              : Audio Coding 3
  71. Commercial name                          : Dolby Digital
  72. Codec ID                                 : A_AC3
  73. Duration                                 : 1 h 46 min
  74. Bit rate mode                            : Constant
  75. Bit rate                                 : 448 kb/s
  76. Channel(s)                               : 6 channels
  77. Channel layout                           : L R C LFE Ls Rs
  78. Sampling rate                            : 48.0 kHz
  79. Frame rate                               : 31.250 FPS (1536 SPF)
  80. Compression mode                         : Lossy
  81. Stream size                              : 342 MiB (2%)
  82. Title                                    : Mandarin Dolby Digital Audio 5.1 @ 448 kbps
  83. Language                                 : Chinese
  84. Service kind                             : Complete Main
  85. Default                                  : No
  86. Forced                                   : No
  87. Text #1
  88. ID                                       : 4
  89. Format                                   : PGS
  90. Codec ID                                 : S_HDMV/PGS
  91. Codec ID/Info                            : Picture based subtitle format used on BDs/HD-DVDs
  92. Duration                                 : 1 h 45 min
  93. Bit rate                                 : 18.9 kb/s
  94. Count of elements                        : 1718
  95. Stream size                              : 14.3 MiB (0%)
  96. Title                                    : Eng/SUP
  97. Language                                 : English
  98. Default                                  : No
  99. Forced                                   : No
  100. Text #2
  101. ID                                       : 5
  102. Format                                   : PGS
  103. Codec ID                                 : S_HDMV/PGS
  104. Codec ID/Info                            : Picture based subtitle format used on BDs/HD-DVDs
  105. Duration                                 : 1 h 46 min
  106. Bit rate                                 : 16.1 kb/s
  107. Count of elements                        : 1310
  108. Stream size                              : 12.2 MiB (0%)
  109. Title                                    : Chs/SUP  原盘简体
  110. Language                                 : Chinese
  111. Default                                  : Yes
  112. Forced                                   : No
  113. Text #3
  114. ID                                       : 6
  115. Format                                   : PGS
  116. Codec ID                                 : S_HDMV/PGS
  117. Codec ID/Info                            : Picture based subtitle format used on BDs/HD-DVDs
  118. Duration                                 : 1 h 46 min
  119. Bit rate                                 : 11.8 kb/s
  120. Count of elements                        : 1424
  121. Stream size                              : 8.92 MiB (0%)
  122. Title                                    : Cht/SUP  原盘繁体(HK)
  123. Language                                 : Chinese
  124. Default                                  : No
  125. Forced                                   : No
  126. Text #4
  127. ID                                       : 7
  128. Format                                   : PGS
  129. Codec ID                                 : S_HDMV/PGS
  130. Codec ID/Info                            : Picture based subtitle format used on BDs/HD-DVDs
  131. Duration                                 : 1 h 45 min
  132. Bit rate                                 : 10.9 kb/s
  133. Count of elements                        : 1366
  134. Stream size                              : 8.26 MiB (0%)
  135. Title                                    : Cht/SUP  原盘繁体(TW)
  136. Language                                 : Chinese
  137. Default                                  : No
  138. Forced                                   : No
  139. Text #5
  140. ID                                       : 8
  141. Format                                   : PGS
  142. Codec ID                                 : S_HDMV/PGS
  143. Codec ID/Info                            : Picture based subtitle format used on BDs/HD-DVDs
  144. Duration                                 : 1 h 45 min
  145. Bit rate                                 : 620 b/s
  146. Count of elements                        : 48
  147. Stream size                              : 480 KiB (0%)
  148. Title                                    : Chs/SUP  原盘纯正文简体
  149. Language                                 : Chinese
  150. Default                                  : No
  151. Forced                                   : No
  152. Menu
  153. 00:00:00.000                             : en:第 01 章
  154. 00:08:51.364                             : en:第 02 章
  155. 00:20:13.754                             : en:第 03 章
  156. 00:29:07.621                             : en:第 04 章
  157. 00:42:35.261                             : en:第 05 章
  158. 00:52:48.207                             : en:第 06 章
  159. 01:04:32.827                             : en:第 07 章
  160. 01:12:50.825                             : en:第 08 章
  161. 01:25:55.025                             : en:第 09 章
  162. 01:33:23.348                             : en:第 10 章
  163. 01:39:13.906                             : en:第 11 章
复制代码
















保举请利用qBittorrent,utorrent,transmission等标准BT软件下载!以获得最快速度。奉求保种!





回复

使用道具 举报

蓝光币
207
发表于 2022-7-23 21:23:35 | 显示全部楼层
感谢分享
回复

使用道具 举报

蓝光币
2516
发表于 2022-7-24 00:11:14 | 显示全部楼层
太好啦&萬分感謝版主的無私發佈分享%
回复

使用道具 举报

蓝光币
1
发表于 2024-4-3 21:39:28 | 显示全部楼层
谢谢分享
回复

使用道具 举报

懒得打字嘛,点击右侧快捷回复 【右侧内容,后台自定义】
您需要登录后才可以回帖 登录 | 立即加入

本版积分规则

Archiver| |网站地图

Copyright © 2024 Comsenz Inc. Powered by 蓝光电影网

本站内容由用户自主分享和转载自互联网,转载目的在于传递更多信息,并不代表本网赞同其观点和对其真实性负责。

如有侵权、违反国家法律政策行为,请联系我们,我们会第一时间及时清除和处理!

举报反馈邮箱:4k1080.com@gmail.com

快速回复 返回顶部 返回列表