找回密码

查看: 2371|回复: 0

[剧情] 断线/断了线 Disconnect.2012.1080p.BluRay.x264-ALLiANCE 7.94GB

[复制链接]
蓝光币
2027
发表于 2018-8-27 19:09:00 | 显示全部楼层 |阅读模式

断线/断了线 Disconnect.2012.1080p.BluRay.x264-ALLiANCE 7.94GB-1.jpg
◎译  名 断线/断了线(港)/疏离天下(台)/失连/掉线
◎片  名 Disconnect
◎年  代 2012
◎产  地 美国
◎类  别 剧情/惊悚
◎语  言 英语
◎上映日期 2012-09(威尼斯电影节)/2013-04-12(美国)
◎豆瓣评分 8.0/10 from 16,280 users
◎豆瓣链接 https://movie.douban.com/subject/3725295/
◎片  长 115分钟
◎导  演 亨利·亚历克斯·鲁宾  Henry Alex Rubin
◎主  演 杰森·贝特曼 Jason Bateman
      霍普·戴维斯 Hope Davis
      弗兰克·格里罗 Frank Grillo
      宝拉·巴顿 Paula Patton
      安德丽亚·瑞斯波罗格 Andrea Riseborough
      亚历山大·斯卡斯加德 Alexander Skarsg?rd
      迈克尔·恩奎斯特 Michael Nyqvist
      马克斯·希尔莱耶 Max Thieriot
      科林·福特 Colin Ford
      乔纳什·波波 Jonah Bobo
      哈莉·拉姆 Haley Ramm

◎简  介

  虚拟的交际收集连了线,实在的人际关系却断了线。聊天室的每句对话、脸书上的一张照片一条短片,背后隐藏着人渴望与人打仗的愿望,但却分分钟带来不胜设想的结果。无所事事的大律师无暇与家人相处相同,直到儿子失事才懊悔爱得太迟;一对婚姻死板无味的佳耦各安闲网上追求安慰,但收集天下何来奥秘;孤僻宅男网上会女神,本来一向被玩更误堕色欲圈套;顽童网上凌辱同学,兴尽悲来;女记者为爆独家猛料,故意接近未成年色情网男模,道德界限难划清。几条故事线纠缠交织,每个荡失于虚拟天下的仆人翁,只是渴望找到与人实在的联系和相同。

◎获奖情况

  第4届豆瓣电影鑫像奖  (2014)
  鑫豆单元 最轻易轻忽的好电影(提名)

  1. Video
  2. ID                                       : 1
  3. Format                                   : AVC
  4. Format/Info                              : Advanced Video Codec
  5. Format profile                           : [url=/cdn-cgi/l/email-protection][email protected][/url]
  6. Format settings                          : CABAC / 4 Ref Frames
  7. Format settings, CABAC                   : Yes
  8. Format settings, ReFrames                : 4 frames
  9. Codec ID                                 : V_MPEG4/ISO/AVC
  10. Duration                                 : 1 h 55 min
  11. Bit rate                                 : 8 320 kb/s
  12. Width                                    : 1 920 pixels
  13. Height                                   : 1 040 pixels
  14. Display aspect ratio                     : 1.85:1
  15. Frame rate mode                          : Constant
  16. Frame rate                               : 23.976 FPS
  17. Color space                              : YUV
  18. Chroma subsampling                       : 4:2:0
  19. Bit depth                                : 8 bits
  20. Scan type                                : Progressive
  21. Bits/(Pixel*Frame)                       : 0.174
  22. Stream size                              : 6.56 GiB (83%)
  23. Title                                    : X264
  24. Writing library                          : x264 core 133 r2334 a3ac64b
  25. Encoding settings                        : cabac=1 / ref=4 / deblock=1:0:0 / analyse=0x3:0x133 / me=umh / subme=7 / psy=1 / psy_rd=1.00:0.00 / mixed_ref=1 / me_range=16 / chroma_me=1 / trellis=1 / 8x8dct=1 / cqm=0 / deadzone=21,11 / fast_pskip=0 / chroma_qp_offset=-2 / threads=12 / lookahead_threads=2 / sliced_threads=0 / nr=0 / decimate=1 / interlaced=0 / bluray_compat=0 / constrained_intra=0 / bframes=3 / b_pyramid=2 / b_adapt=1 / b_bias=0 / direct=1 / weightb=1 / open_gop=0 / weightp=2 / keyint=250 / keyint_min=23 / scenecut=40 / intra_refresh=0 / rc_lookahead=40 / rc=2pass / mbtree=1 / bitrate=8320 / ratetol=1.0 / qcomp=0.60 / qpmin=0 / qpmax=69 / qpstep=4 / cplxblur=20.0 / qblur=0.5 / ip_ratio=1.40 / aq=1:1.00
  26. Language                                 : English
  27. Default                                  : Yes
  28. Forced                                   : No

  29. Audio
  30. ID                                       : 2
  31. Format                                   : DTS
  32. Format/Info                              : Digital Theater Systems
  33. Codec ID                                 : A_DTS
  34. Duration                                 : 1 h 55 min
  35. Bit rate mode                            : Constant
  36. Bit rate                                 : 1 509 kb/s
  37. Channel(s)                               : 6 channels
  38. Channel positions                        : Front: L C R, Side: L R, LFE
  39. Sampling rate                            : 48.0 kHz
  40. Frame rate                               : 93.750 FPS (512 SPF)
  41. Bit depth                                : 24 bits
  42. Compression mode                         : Lossy
  43. Stream size                              : 1.22 GiB (15%)
  44. Title                                    : DTS
  45. Language                                 : English
  46. Default                                  : Yes
  47. Forced                                   : No

  48. Menu
  49. 00:00:00.000                             : en:00:00:00.000
  50. 00:07:07.344                             : en:00:07:07.344
  51. 00:13:45.158                             : en:00:13:45.158
  52. 00:19:52.316                             : en:00:19:52.316
  53. 00:24:54.868                             : en:00:24:54.868
  54. 00:29:57.254                             : en:00:29:57.254
  55. 00:37:49.267                             : en:00:37:49.267
  56. 00:45:17.465                             : en:00:45:17.465
  57. 00:51:18.450                             : en:00:51:18.450
  58. 00:58:34.010                             : en:00:58:34.010
  59. 01:04:35.622                             : en:01:04:35.622
  60. 01:10:56.961                             : en:01:10:56.961
  61. 01:17:00.199                             : en:01:17:00.199
  62. 01:22:32.948                             : en:01:22:32.948
  63. 01:31:25.438                             : en:01:31:25.438
  64. 01:42:54.001                             : en:01:42:54.001
复制代码

复制代码

断线/断了线 Disconnect.2012.1080p.BluRay.x264-ALLiANCE 7.94GB-2.png 断线/断了线 Disconnect.2012.1080p.BluRay.x264-ALLiANCE 7.94GB-3.png 断线/断了线 Disconnect.2012.1080p.BluRay.x264-ALLiANCE 7.94GB-4.png






回复

使用道具 举报

懒得打字嘛,点击右侧快捷回复 【右侧内容,后台自定义】
您需要登录后才可以回帖 登录 | 立即加入

本版积分规则

Archiver| |网站地图

Copyright © 2024 Comsenz Inc. Powered by 蓝光电影网

本站内容由用户自主分享和转载自互联网,转载目的在于传递更多信息,并不代表本网赞同其观点和对其真实性负责。

如有侵权、违反国家法律政策行为,请联系我们,我们会第一时间及时清除和处理!

举报反馈邮箱:4k1080.com@gmail.com

快速回复 返回顶部 返回列表