找回密码

查看: 1884|回复: 0

[剧情] 断了气.Breathless.1983.REMASTERED.1080p.BluRay.x264.DTS-FGT 9.10GB

[复制链接]
蓝光币
2027
发表于 2023-4-3 18:01:54 | 显示全部楼层 |阅读模式


◎译  名 断了气 / 欲海惊魂 / 精疲力竭
◎片  名 Breathless
◎年  代 1983
◎产  地 美国
◎类  别 剧情 / 行动 / 恋爱 / 惊悚
◎语  言 英语
◎上映日期 1983-05-13
◎IMDb评星  ★★★★★★☆☆☆☆
◎IMDb评分  5.9/10 from 9,788 users
◎IMDb链接  https://www.imdb.com/title/tt0085276/
◎豆瓣评星 ★★★✦☆
◎豆瓣评分 7.3/10 from 525 users
◎豆瓣链接 https://movie.douban.com/subject/1299358/
◎片  长 100 分钟
◎导  演 吉姆·麦克布莱德 / Jim McBride
◎演  员 理查·基尔 / Richard Gere
      范蕾丽尔·卡帕里斯基 / Valérie Kaprisky
      阿特·梅特拉诺 / Art Metrano
      约翰·P.瑞安 / John P. Ryan
      亨利·G.桑德斯 / Henry G. Sanders
      Brien Varady Brien Varady
      欧仁·卢里耶 / Eugène Lourié
      Martin Erlichman Martin Erlichman
      Waldemar Kalinowski Waldemar Kalinowski
      Georg Olden Georg Olden
      丽莎·简·波斯基 / Lisa Jane Persky
      哈维尔·格拉杰达 / Javier Grajeda
      吴汉章 / James Hong
      布鲁斯·维莱什 / Bruce Vilanch
      Miguel Pinero Miguel Pinero
◎编  剧 吉姆·麦克布莱德 / Jim McBride
      让-吕克·戈达尔 / Jean-Luc Godard
      弗朗索瓦·特吕弗 / François Truffaut
◎制  片  人 Martin Erlichman Martin Erlichman
◎音  乐 杰克·尼切 / Jack Nitzsche
◎摄  影 理查·克莱因 / Richard H. Kline
◎剪  辑 Robert Estrin Robert Estrin
◎选  角 简·詹金斯 / Jane Jenkins
◎美  术 理查德·希尔伯特 / Richard Sylbert
      乔治·盖尼斯 / George Gaines
◎服  装 J. Allen Highfill J. Allen Highfill
◎简  介 
  杰西(理查·基尔 Richard Gere 饰)是一个横冲直撞又挺拔独行的青年,过着汗漫不羁的生活。杰西在拉斯维加斯偷了一辆车,并和警方发生了交火,意外中,杰西杀死了一位差人,成为了通缉犯。无法之下,杰西只得踏上流亡的旅途,他的目标地是洛杉矶。
  在洛杉矶,杰西找到了之前结识的女孩莫妮卡(范蕾丽尔·卡帕里斯基 Valérie Kaprisky 饰),对莫妮卡一见钟情的杰西希望前者可以和他一路去墨西哥生活。莫妮卡诞生在一个很是守旧的家庭当中,过着循规蹈矩的生活,杰西的大胆倡议让她心动不已。但是,终极,莫妮卡发现了杰西的通缉令,意想到自己一向和一位杀人犯在一路,忙乱当中,莫妮卡报了警。
  1. Video
  2. ID : 1
  3. Format : AVC
  4. Format/Info : Advanced Video Codec
  5. Format profile : High@L4.1
  6. Format settings : CABAC / 4 Ref Frames
  7. Format settings, CABAC : Yes
  8. Format settings, Reference frames : 4 frames
  9. Codec ID : V_MPEG4/ISO/AVC
  10. Duration : 1 h 40 min
  11. Bit rate : 11.5 Mb/s
  12. Width : 1 920 pixels
  13. Height : 1 036 pixels
  14. Display aspect ratio : 1.85:1
  15. Frame rate mode : Constant
  16. Frame rate : 23.976 (24000/1001) FPS
  17. Color space : YUV
  18. Chroma subsampling : 4:2:0
  19. Bit depth : 8 bits
  20. Scan type : Progressive
  21. Bits/(Pixel*Frame) : 0.241
  22. Stream size : 8.04 GiB (88%)
  23. Writing library : x264 core 148 r2748 97eaef2
  24. Encoding settings : cabac=1 / ref=4 / deblock=1:-2:-2 / analyse=0x3:0x113 / me=umh / subme=9 / psy=1 / psy_rd=1.00:0.15 / mixed_ref=1 / me_range=16 / chroma_me=1 / trellis=2 / 8x8dct=1 / cqm=0 / deadzone=21,11 / fast_pskip=1 / chroma_qp_offset=-3 / threads=72 / lookahead_threads=3 / sliced_threads=0 / nr=0 / decimate=1 / interlaced=0 / bluray_compat=0 / constrained_intra=0 / bframes=3 / b_pyramid=2 / b_adapt=1 / b_bias=0 / direct=3 / weightb=1 / open_gop=0 / weightp=2 / keyint=250 / keyint_min=25 / scenecut=40 / intra_refresh=0 / rc_lookahead=50 / rc=2pass / mbtree=1 / bitrate=11500 / ratetol=1.0 / qcomp=0.60 / qpmin=0 / qpmax=69 / qpstep=4 / cplxblur=20.0 / qblur=0.5 / vbv_maxrate=31250 / vbv_bufsize=31250 / nal_hrd=none / filler=0 / ip_ratio=1.40 / aq=1:1.00
  25. Language : English
  26. Default : Yes
  27. Forced : No
  28. Audio
  29. ID : 2
  30. Format : DTS
  31. Format/Info : Digital Theater Systems
  32. Codec ID : A_DTS
  33. Duration : 1 h 40 min
  34. Bit rate mode : Constant
  35. Bit rate : 1 509 kb/s
  36. Channel(s) : 2 channels
  37. Channel layout : L R
  38. Sampling rate : 48.0 kHz
  39. Frame rate : 93.750 FPS (512 SPF)
  40. Bit depth : 24 bits
  41. Compression mode : Lossy
  42. Stream size : 1.06 GiB (12%)
  43. Language : English
  44. Default : Yes
  45. Forced : No
  46. Text #1
  47. ID : 3
  48. Format : UTF-8
  49. Codec ID : S_TEXT/UTF8
  50. Codec ID/Info : UTF-8 Plain Text
  51. Duration : 1 h 39 min
  52. Bit rate : 54 b/s
  53. Frame rate : 0.248 FPS
  54. Count of elements : 1488
  55. Stream size : 39.9 KiB (0%)
  56. Language : English
  57. Default : Yes
  58. Forced : No
  59. Text #2
  60. ID : 4
  61. Format : UTF-8
  62. Codec ID : S_TEXT/UTF8
  63. Codec ID/Info : UTF-8 Plain Text
  64. Duration : 1 h 40 min
  65. Bit rate : 60 b/s
  66. Frame rate : 0.267 FPS
  67. Count of elements : 1602
  68. Stream size : 44.2 KiB (0%)
  69. Title : SDH
  70. Language : English
  71. Default : No
  72. Forced : No
  73. Menu
  74. 00:00:00.000 : en:Chapter 01
  75. 00:11:07.124 : en:Chapter 02
  76. 00:18:50.087 : en:Chapter 03
  77. 00:28:20.573 : en:Chapter 04
  78. 00:38:22.758 : en:Chapter 05
  79. 00:48:20.397 : en:Chapter 06
  80. 00:57:45.670 : en:Chapter 07
  81. 01:05:15.620 : en:Chapter 08
  82. 01:14:27.421 : en:Chapter 09
  83. 01:22:04.711 : en:Chapter 10
  84. 01:28:20.044 : en:Chapter 11
  85. 01:32:59.699 : en:Chapter 12
复制代码











回复

使用道具 举报

懒得打字嘛,点击右侧快捷回复 【右侧内容,后台自定义】
您需要登录后才可以回帖 登录 | 立即加入

本版积分规则

Archiver| |网站地图

Copyright © 2024 Comsenz Inc. Powered by 蓝光电影网

本站内容由用户自主分享和转载自互联网,转载目的在于传递更多信息,并不代表本网赞同其观点和对其真实性负责。

如有侵权、违反国家法律政策行为,请联系我们,我们会第一时间及时清除和处理!

举报反馈邮箱:4k1080.com@gmail.com

快速回复 返回顶部 返回列表