找回密码

查看: 2129|回复: 1

[剧情] 断了气.Breathless.1983.REMASTERED.1080p.BluRay.REMUX.AVC.DTS-HD.MA.2.0-FGT 28.49GB

[复制链接]
蓝光币
2027
发表于 2023-4-3 18:10:10 | 显示全部楼层 |阅读模式


◎译  名 断了气 / 欲海惊魂 / 精疲力竭
◎片  名 Breathless
◎年  代 1983
◎产  地 美国
◎类  别 剧情 / 行动 / 恋爱 / 惊悚
◎语  言 英语
◎上映日期 1983-05-13
◎IMDb评星  ★★★★★★☆☆☆☆
◎IMDb评分  5.9/10 from 9,788 users
◎IMDb链接  https://www.imdb.com/title/tt0085276/
◎豆瓣评星 ★★★✦☆
◎豆瓣评分 7.3/10 from 525 users
◎豆瓣链接 https://movie.douban.com/subject/1299358/
◎片  长 100 分钟
◎导  演 吉姆·麦克布莱德 / Jim McBride
◎演  员 理查·基尔 / Richard Gere
      范蕾丽尔·卡帕里斯基 / Valérie Kaprisky
      阿特·梅特拉诺 / Art Metrano
      约翰·P.瑞安 / John P. Ryan
      亨利·G.桑德斯 / Henry G. Sanders
      Brien Varady Brien Varady
      欧仁·卢里耶 / Eugène Lourié
      Martin Erlichman Martin Erlichman
      Waldemar Kalinowski Waldemar Kalinowski
      Georg Olden Georg Olden
      丽莎·简·波斯基 / Lisa Jane Persky
      哈维尔·格拉杰达 / Javier Grajeda
      吴汉章 / James Hong
      布鲁斯·维莱什 / Bruce Vilanch
      Miguel Pinero Miguel Pinero
◎编  剧 吉姆·麦克布莱德 / Jim McBride
      让-吕克·戈达尔 / Jean-Luc Godard
      弗朗索瓦·特吕弗 / François Truffaut
◎制  片  人 Martin Erlichman Martin Erlichman
◎音  乐 杰克·尼切 / Jack Nitzsche
◎摄  影 理查·克莱因 / Richard H. Kline
◎剪  辑 Robert Estrin Robert Estrin
◎选  角 简·詹金斯 / Jane Jenkins
◎美  术 理查德·希尔伯特 / Richard Sylbert
      乔治·盖尼斯 / George Gaines
◎服  装 J. Allen Highfill J. Allen Highfill
◎简  介 
  杰西(理查·基尔 Richard Gere 饰)是一个横冲直撞又挺拔独行的青年,过着汗漫不羁的生活。杰西在拉斯维加斯偷了一辆车,并和警方发生了交火,意外中,杰西杀死了一位差人,成为了通缉犯。无法之下,杰西只得踏上流亡的旅途,他的目标地是洛杉矶。
  在洛杉矶,杰西找到了之前结识的女孩莫妮卡(范蕾丽尔·卡帕里斯基 Valérie Kaprisky 饰),对莫妮卡一见钟情的杰西希望前者可以和他一路去墨西哥生活。莫妮卡诞生在一个很是守旧的家庭当中,过着循规蹈矩的生活,杰西的大胆倡议让她心动不已。但是,终极,莫妮卡发现了杰西的通缉令,意想到自己一向和一位杀人犯在一路,忙乱当中,莫妮卡报了警。
  1. Video
  2. ID : 1
  3. ID in the original source medium : 4113 (0x1011)
  4. Format : AVC
  5. Format/Info : Advanced Video Codec
  6. Format profile : High@L4.1
  7. Format settings : CABAC / 4 Ref Frames
  8. Format settings, CABAC : Yes
  9. Format settings, Reference frames : 4 frames
  10. Format settings, GOP : M=3, N=12
  11. Codec ID : V_MPEG4/ISO/AVC
  12. Duration : 1 h 40 min
  13. Bit rate mode : Variable
  14. Bit rate : 37.0 Mb/s
  15. Width : 1 920 pixels
  16. Height : 1 080 pixels
  17. Display aspect ratio : 16:9
  18. Frame rate mode : Constant
  19. Frame rate : 23.976 (24000/1001) FPS
  20. Color space : YUV
  21. Chroma subsampling : 4:2:0
  22. Bit depth : 8 bits
  23. Scan type : Progressive
  24. Bits/(Pixel*Frame) : 0.744
  25. Stream size : 25.6 GiB (90%)
  26. Language : English
  27. Default : No
  28. Forced : No
  29. Color range : Limited
  30. Color primaries : BT.709
  31. Transfer characteristics : BT.709
  32. Matrix coefficients : BT.709
  33. Original source medium : Blu-ray
  34. Audio #1
  35. ID : 2
  36. ID in the original source medium : 4352 (0x1100)
  37. Format : DTS XLL
  38. Format/Info : Digital Theater Systems
  39. Commercial name : DTS-HD Master Audio
  40. Codec ID : A_DTS
  41. Duration : 1 h 40 min
  42. Bit rate mode : Variable
  43. Bit rate : 1 963 kb/s
  44. Channel(s) : 2 channels
  45. Channel layout : L R
  46. Sampling rate : 48.0 kHz
  47. Frame rate : 93.750 FPS (512 SPF)
  48. Bit depth : 24 bits
  49. Compression mode : Lossless
  50. Stream size : 1.37 GiB (5%)
  51. Title : DTS-HD MA 2.0
  52. Language : English
  53. Default : Yes
  54. Forced : No
  55. Original source medium : Blu-ray
  56. Audio #2
  57. ID : 3
  58. ID in the original source medium : 4353 (0x1101)
  59. Format : AC-3
  60. Format/Info : Audio Coding 3
  61. Commercial name : Dolby Digital
  62. Codec ID : A_AC3
  63. Duration : 1 h 40 min
  64. Bit rate mode : Constant
  65. Bit rate : 256 kb/s
  66. Channel(s) : 2 channels
  67. Channel layout : L R
  68. Sampling rate : 48.0 kHz
  69. Frame rate : 31.250 FPS (1536 SPF)
  70. Compression mode : Lossy
  71. Stream size : 183 MiB (1%)
  72. Title : DD 2.0
  73. Language : English
  74. Service kind : Complete Main
  75. Default : No
  76. Forced : No
  77. Original source medium : Blu-ray
  78. Audio #3
  79. ID : 4
  80. ID in the original source medium : 4354 (0x1102)
  81. Format : DTS XLL
  82. Format/Info : Digital Theater Systems
  83. Commercial name : DTS-HD Master Audio
  84. Codec ID : A_DTS
  85. Duration : 1 h 40 min
  86. Bit rate mode : Variable
  87. Bit rate : 1 844 kb/s
  88. Channel(s) : 2 channels
  89. Channel layout : L R
  90. Sampling rate : 48.0 kHz
  91. Frame rate : 93.750 FPS (512 SPF)
  92. Bit depth : 24 bits
  93. Compression mode : Lossless
  94. Stream size : 1.29 GiB (5%)
  95. Title : DTS-HD MA 2.0
  96. Language : English
  97. Default : No
  98. Forced : No
  99. Original source medium : Blu-ray
  100. Text #1
  101. ID : 5
  102. Format : UTF-8
  103. Codec ID : S_TEXT/UTF8
  104. Codec ID/Info : UTF-8 Plain Text
  105. Duration : 1 h 39 min
  106. Bit rate : 54 b/s
  107. Frame rate : 0.248 FPS
  108. Count of elements : 1488
  109. Stream size : 39.9 KiB (0%)
  110. Language : English
  111. Default : Yes
  112. Forced : No
  113. Text #2
  114. ID : 6
  115. Format : UTF-8
  116. Codec ID : S_TEXT/UTF8
  117. Codec ID/Info : UTF-8 Plain Text
  118. Duration : 1 h 40 min
  119. Bit rate : 60 b/s
  120. Frame rate : 0.267 FPS
  121. Count of elements : 1602
  122. Stream size : 44.2 KiB (0%)
  123. Title : SDH
  124. Language : English
  125. Default : No
  126. Forced : No
  127. Text #3
  128. ID : 7
  129. ID in the original source medium : 4608 (0x1200)
  130. Format : PGS
  131. Muxing mode : zlib
  132. Codec ID : S_HDMV/PGS
  133. Codec ID/Info : Picture based subtitle format used on BDs/HD-DVDs
  134. Duration : 1 h 40 min
  135. Bit rate : 35.5 kb/s
  136. Frame rate : 0.535 FPS
  137. Count of elements : 3209
  138. Stream size : 25.4 MiB (0%)
  139. Language : English
  140. Default : No
  141. Forced : No
  142. Original source medium : Blu-ray
  143. Menu
  144. 00:00:00.000 : en:Chapter 01
  145. 00:11:07.124 : en:Chapter 02
  146. 00:18:50.087 : en:Chapter 03
  147. 00:28:20.573 : en:Chapter 04
  148. 00:38:22.758 : en:Chapter 05
  149. 00:48:20.397 : en:Chapter 06
  150. 00:57:45.670 : en:Chapter 07
  151. 01:05:15.620 : en:Chapter 08
  152. 01:14:27.421 : en:Chapter 09
  153. 01:22:04.711 : en:Chapter 10
  154. 01:28:20.044 : en:Chapter 11
  155. 01:32:59.699 : en:Chapter 12
复制代码











回复

使用道具 举报

蓝光币
830
发表于 2023-4-7 23:37:09 | 显示全部楼层

既然你诚信诚意的推荐了,那我就勉为其难的看看吧!蓝光电影网不走平凡路。
回复

使用道具 举报

懒得打字嘛,点击右侧快捷回复 【右侧内容,后台自定义】
您需要登录后才可以回帖 登录 | 立即加入

本版积分规则

Archiver| |网站地图

Copyright © 2024 Comsenz Inc. Powered by 蓝光电影网

本站内容由用户自主分享和转载自互联网,转载目的在于传递更多信息,并不代表本网赞同其观点和对其真实性负责。

如有侵权、违反国家法律政策行为,请联系我们,我们会第一时间及时清除和处理!

举报反馈邮箱:4k1080.com@gmail.com

快速回复 返回顶部 返回列表