找回密码

查看: 1155|回复: 0

[UHD.HEVC] 蜘蛛侠:英雄远征/新蜘蛛侠2 Spider-Man.Far.from.Home.2019.2160p.BluRay.REMUX.HEVC.DTS-HD.MA.TrueHD.7.1.Atmos-FGT 67.83GB

[复制链接]
蓝光币
2027
发表于 2019-9-23 18:32:01 | 显示全部楼层 |阅读模式


◎译  名 蜘蛛侠:豪杰远征 / 新蜘蛛侠2 / 蜘蛛侠2 / 蜘蛛侠2:离家出走(豆友译名) / 蜘蛛侠2:豪杰离乡 / 蜘蛛侠2:阔别故乡 / 蜘蛛侠:决战千里(港) / 蜘蛛侠:归来2 / 蜘蛛侠:离家日(台) / 蜘蛛侠:豪杰归来2 / 蜘蛛侠:阔别故乡
◎片  名 Spider-Man: Far from Home
◎年  代 2019
◎产  地 美国
◎类  别 行动 / 科幻 / 冒险
◎语  言 英语
◎上映日期 2019-06-28(中国大陆) / 2019-07-02(美国)
◎IMDb评分  7.9/10 from 161425 users
◎IMDb链接  http://www.imdb.com/title/tt6320628
◎豆瓣评分 7.9/10 from 346059 users
◎豆瓣链接 https://movie.douban.com/subject/26931786/
◎片  长 127分钟
◎导  演 乔·沃茨 Jon Watts
◎编  剧 克里斯·麦克纳 Chris McKenna / 埃里克·萨默斯 Erik Sommers / 史蒂夫·迪特寇 Steve Ditko / 斯坦·李 Stan Lee
◎主  演 汤姆·赫兰德 Tom Holland
       赞达亚 Zendaya
       杰克·吉伦哈尔 Jake Gyllenhaal
       寇碧·史莫德斯 Cobie Smulders
       塞缪尔·杰克逊 Samuel L. Jackson
       乔恩·费儒 Jon Favreau
       玛丽莎·托梅 Marisa Tomei
       雅各布·巴特朗 Jacob Batalon
       安格瑞·赖斯 Angourie Rice
       马丁·斯塔尔 Martin Starr
       瑞米·海依 Remy Hii
       纽曼·阿卡 Numan Acar
       托尼·雷沃罗利 Tony Revolori
       J·B·斯穆夫 J.B. Smoove
       赫米基·马德拉 Hemky Madera
       戴维娜·西塔拉姆 Davina Sitaram
       约瑟夫·朗 Joseph Long
       露丝·霍洛克斯 Ruth Horrocks
       哈廷·帕特尔 Hiten Patel
       杰罗恩·凡·康宁斯伯格 Jeroen van Koningsbrugge
       Leonys Delossantos
       查利·蕾娅·埃斯奎尔 Charlie Rhea Esquér
       费斯·洛根 Faith Logan
       J·K·西蒙斯 J.K. Simmons
       小罗伯特·唐尼 Robert Downey Jr.

◎标  签 漫威 | 超级豪杰 | 美国 | 科幻 | 2019 | 长大 | 行动 | 漫画改编
◎简  介  
  在复仇者同盟众豪杰的尽力下,于灭霸无穷手套事务中化作为灰烬的人们,重新回到了大家间,已经消失的蜘蛛侠 彼得帕克 也回归到了普通的生活当中,数月后,蜘蛛侠彼得帕克地点的黉舍举行了欧洲旅游,帕克也在其中, 在欧州威尼斯观光时,一个巨大无朋的水怪攻击了威尼斯,不敌仇敌的蜘蛛侠幸得一位自称奥秘客的男人搭救才击退仇敌,以后 神盾局局长找上正在旅游的彼得帕克并要求其加出神盾局,并放置奥秘客辅佐帕克,奥秘客自称来自其他宇宙,并奉告一群名为元素众的邪恶势力已经入侵这个宇宙了,为了保护来之不易的战争,蜘蛛侠决议与奥秘客联手,但是在奥秘客那头罩当中,似乎隐藏着什么不为人知的真相……
◎获奖情况  
  第5届豆瓣电影年度榜单(2018)
  最值得期待的外语电影(提名)
  1. Video #1
  2. ID                                       : 1
  3. Format                                   : HEVC
  4. Format/Info                              : High Efficiency Video Coding
  5. Format profile                           : Main [email protected]@High
  6. HDR format                               : SMPTE ST 2086, HDR10 compatible
  7. Codec ID                                 : V_MPEGH/ISO/HEVC
  8. Duration                                 : 2 h 9 min
  9. Bit rate                                 : 53.7 Mb/s
  10. Width                                    : 3 840 pixels
  11. Height                                   : 2 160 pixels
  12. Display aspect ratio                     : 16:9
  13. Frame rate mode                          : Constant
  14. Frame rate                               : 23.976 (24000/1001) FPS
  15. Color space                              : YUV
  16. Chroma subsampling                       : 4:2:0 (Type 2)
  17. Bit depth                                : 10 bits
  18. Bits/(Pixel*Frame)                       : 0.270
  19. Stream size                              : 48.5 GiB (72%)
  20. Title                                    : Spider-Man.Far.from.Home.2019.2160p.BluRay.REMUX.HEVC.DTS-HD.MA.TrueHD.7.1.Atmos-FGT
  21. Language                                 : English
  22. Default                                  : Yes
  23. Forced                                   : No
  24. Color range                              : Limited
  25. Color primaries                          : BT.2020
  26. Transfer characteristics                 : PQ
  27. Matrix coefficients                      : BT.2020 non-constant
  28. Mastering display color primaries        : Display P3
  29. Mastering display luminance              : min: 0.0001 cd/m2, max: 1000 cd/m2
  30. Maximum Content Light Level              : 9978 cd/m2
  31. Maximum Frame-Average Light Level        : 614 cd/m2
  32. Video #2
  33. ID                                       : 2
  34. Format                                   : HEVC
  35. Format/Info                              : High Efficiency Video Coding
  36. Format profile                           : Main [email protected]@High
  37. HDR format                               : SMPTE ST 2086, HDR10 compatible
  38. Codec ID                                 : V_MPEGH/ISO/HEVC
  39. Duration                                 : 2 h 9 min
  40. Bit rate                                 : 2 095 kb/s
  41. Width                                    : 1 920 pixels
  42. Height                                   : 1 080 pixels
  43. Display aspect ratio                     : 16:9
  44. Frame rate mode                          : Constant
  45. Frame rate                               : 23.976 (24000/1001) FPS
  46. Color space                              : YUV
  47. Chroma subsampling                       : 4:2:0 (Type 2)
  48. Bit depth                                : 10 bits
  49. Bits/(Pixel*Frame)                       : 0.042
  50. Stream size                              : 1.89 GiB (3%)
  51. Title                                    : Spider-Man.Far.from.Home.2019.2160p.BluRay.REMUX.HEVC.DTS-HD.MA.TrueHD.7.1.Atmos-FGT
  52. Language                                 : English
  53. Default                                  : No
  54. Forced                                   : No
  55. Color range                              : Limited
  56. Color primaries                          : BT.2020
  57. Transfer characteristics                 : PQ
  58. Matrix coefficients                      : BT.2020 non-constant
  59. Mastering display color primaries        : Display P3
  60. Mastering display luminance              : min: 0.0001 cd/m2, max: 1000 cd/m2
  61. Audio #1
  62. ID                                       : 3
  63. Format                                   : MLP FBA 16-ch
  64. Format/Info                              : Meridian Lossless Packing FBA with 16-channel presentation
  65. Commercial name                          : Dolby TrueHD with Dolby Atmos
  66. Codec ID                                 : A_TRUEHD
  67. Duration                                 : 2 h 9 min
  68. Bit rate mode                            : Variable
  69. Bit rate                                 : 3 077 kb/s
  70. Maximum bit rate                         : 5 397 kb/s
  71. Channel(s)                               : 8 channels
  72. Channel layout                           : L R C LFE Ls Rs Lb Rb
  73. Sampling rate                            : 48.0 kHz
  74. Frame rate                               : 1 200.000 FPS (40 SPF)
  75. Compression mode                         : Lossless
  76. Stream size                              : 2.78 GiB (4%)
  77. Title                                    : Spider-Man.Far.from.Home.2019.2160p.BluRay.REMUX.HEVC.DTS-HD.MA.TrueHD.7.1.Atmos-FGT
  78. Language                                 : English
  79. Default                                  : Yes
  80. Forced                                   : No
  81. Number of dynamic objects                : 11
  82. Bed channel count                        : 1 channel
  83. Bed channel configuration                : LFE
  84. Audio #2
  85. ID                                       : 4
  86. Format                                   : DTS XLL
  87. Format/Info                              : Digital Theater Systems
  88. Commercial name                          : DTS-HD Master Audio
  89. Codec ID                                 : A_DTS
  90. Duration                                 : 2 h 9 min
  91. Bit rate mode                            : Variable
  92. Bit rate                                 : 4 344 kb/s
  93. Channel(s)                               : 8 channels
  94. Channel layout                           : C L R LFE Lb Rb Lss Rss
  95. Sampling rate                            : 48.0 kHz
  96. Frame rate                               : 93.750 FPS (512 SPF)
  97. Bit depth                                : 24 bits
  98. Compression mode                         : Lossless
  99. Stream size                              : 3.93 GiB (6%)
  100. Title                                    : Spider-Man.Far.from.Home.2019.2160p.BluRay.REMUX.HEVC.DTS-HD.MA.TrueHD.7.1.Atmos-FGT
  101. Language                                 : English
  102. Default                                  : No
  103. Forced                                   : No
  104. Audio #3
  105. ID                                       : 5
  106. Format                                   : AC-3
  107. Format/Info                              : Audio Coding 3
  108. Commercial name                          : Dolby Digital
  109. Codec ID                                 : A_AC3
  110. Duration                                 : 2 h 9 min
  111. Bit rate mode                            : Constant
  112. Bit rate                                 : 640 kb/s
  113. Channel(s)                               : 6 channels
  114. Channel layout                           : L R C LFE Ls Rs
  115. Sampling rate                            : 48.0 kHz
  116. Frame rate                               : 31.250 FPS (1536 SPF)
  117. Bit depth                                : 16 bits
  118. Compression mode                         : Lossy
  119. Stream size                              : 592 MiB (1%)
  120. Title                                    : Spider-Man.Far.from.Home.2019.2160p.BluRay.REMUX.HEVC.DTS-HD.MA.TrueHD.7.1.Atmos-FGT
  121. Language                                 : English
  122. Service kind                             : Complete Main
  123. Default                                  : No
  124. Forced                                   : No
  125. Audio #4
  126. ID                                       : 6
  127. Format                                   : AC-3
  128. Format/Info                              : Audio Coding 3
  129. Commercial name                          : Dolby Digital
  130. Codec ID                                 : A_AC3
  131. Duration                                 : 2 h 9 min
  132. Bit rate mode                            : Constant
  133. Bit rate                                 : 640 kb/s
  134. Channel(s)                               : 6 channels
  135. Channel layout                           : L R C LFE Ls Rs
  136. Sampling rate                            : 48.0 kHz
  137. Frame rate                               : 31.250 FPS (1536 SPF)
  138. Bit depth                                : 16 bits
  139. Compression mode                         : Lossy
  140. Stream size                              : 592 MiB (1%)
  141. Title                                    : Spider-Man.Far.from.Home.2019.2160p.BluRay.REMUX.HEVC.DTS-HD.MA.TrueHD.7.1.Atmos-FGT
  142. Language                                 : English
  143. Service kind                             : Complete Main
  144. Default                                  : No
  145. Forced                                   : No
  146. Audio #5
  147. ID                                       : 7
  148. Format                                   : AC-3
  149. Format/Info                              : Audio Coding 3
  150. Commercial name                          : Dolby Digital
  151. Codec ID                                 : A_AC3
  152. Duration                                 : 2 h 9 min
  153. Bit rate mode                            : Constant
  154. Bit rate                                 : 640 kb/s
  155. Channel(s)                               : 6 channels
  156. Channel layout                           : L R C LFE Ls Rs
  157. Sampling rate                            : 48.0 kHz
  158. Frame rate                               : 31.250 FPS (1536 SPF)
  159. Bit depth                                : 16 bits
  160. Compression mode                         : Lossy
  161. Stream size                              : 592 MiB (1%)
  162. Title                                    : Spider-Man.Far.from.Home.2019.2160p.BluRay.REMUX.HEVC.DTS-HD.MA.TrueHD.7.1.Atmos-FGT
  163. Language                                 : Czech
  164. Service kind                             : Complete Main
  165. Default                                  : No
  166. Forced                                   : No
  167. Audio #6
  168. ID                                       : 8
  169. Format                                   : AC-3
  170. Format/Info                              : Audio Coding 3
  171. Commercial name                          : Dolby Digital
  172. Codec ID                                 : A_AC3
  173. Duration                                 : 2 h 9 min
  174. Bit rate mode                            : Constant
  175. Bit rate                                 : 640 kb/s
  176. Channel(s)                               : 6 channels
  177. Channel layout                           : L R C LFE Ls Rs
  178. Sampling rate                            : 48.0 kHz
  179. Frame rate                               : 31.250 FPS (1536 SPF)
  180. Bit depth                                : 16 bits
  181. Compression mode                         : Lossy
  182. Stream size                              : 592 MiB (1%)
  183. Title                                    : Spider-Man.Far.from.Home.2019.2160p.BluRay.REMUX.HEVC.DTS-HD.MA.TrueHD.7.1.Atmos-FGT
  184. Language                                 : French
  185. Service kind                             : Complete Main
  186. Default                                  : No
  187. Forced                                   : No
  188. Audio #7
  189. ID                                       : 9
  190. Format                                   : AC-3
  191. Format/Info                              : Audio Coding 3
  192. Commercial name                          : Dolby Digital
  193. Codec ID                                 : A_AC3
  194. Duration                                 : 2 h 9 min
  195. Bit rate mode                            : Constant
  196. Bit rate                                 : 640 kb/s
  197. Channel(s)                               : 6 channels
  198. Channel layout                           : L R C LFE Ls Rs
  199. Sampling rate                            : 48.0 kHz
  200. Frame rate                               : 31.250 FPS (1536 SPF)
  201. Bit depth                                : 16 bits
  202. Compression mode                         : Lossy
  203. Stream size                              : 592 MiB (1%)
  204. Title                                    : Spider-Man.Far.from.Home.2019.2160p.BluRay.REMUX.HEVC.DTS-HD.MA.TrueHD.7.1.Atmos-FGT
  205. Language                                 : French
  206. Service kind                             : Complete Main
  207. Default                                  : No
  208. Forced                                   : No
  209. Audio #8
  210. ID                                       : 10
  211. Format                                   : AC-3
  212. Format/Info                              : Audio Coding 3
  213. Commercial name                          : Dolby Digital
  214. Codec ID                                 : A_AC3
  215. Duration                                 : 2 h 9 min
  216. Bit rate mode                            : Constant
  217. Bit rate                                 : 640 kb/s
  218. Channel(s)                               : 6 channels
  219. Channel layout                           : L R C LFE Ls Rs
  220. Sampling rate                            : 48.0 kHz
  221. Frame rate                               : 31.250 FPS (1536 SPF)
  222. Bit depth                                : 16 bits
  223. Compression mode                         : Lossy
  224. Stream size                              : 592 MiB (1%)
  225. Title                                    : Spider-Man.Far.from.Home.2019.2160p.BluRay.REMUX.HEVC.DTS-HD.MA.TrueHD.7.1.Atmos-FGT
  226. Language                                 : Hindi
  227. Service kind                             : Complete Main
  228. Default                                  : No
  229. Forced                                   : No
  230. Audio #9
  231. ID                                       : 11
  232. Format                                   : AC-3
  233. Format/Info                              : Audio Coding 3
  234. Commercial name                          : Dolby Digital
  235. Codec ID                                 : A_AC3
  236. Duration                                 : 2 h 9 min
  237. Bit rate mode                            : Constant
  238. Bit rate                                 : 640 kb/s
  239. Channel(s)                               : 6 channels
  240. Channel layout                           : L R C LFE Ls Rs
  241. Sampling rate                            : 48.0 kHz
  242. Frame rate                               : 31.250 FPS (1536 SPF)
  243. Bit depth                                : 16 bits
  244. Compression mode                         : Lossy
  245. Stream size                              : 592 MiB (1%)
  246. Title                                    : Spider-Man.Far.from.Home.2019.2160p.BluRay.REMUX.HEVC.DTS-HD.MA.TrueHD.7.1.Atmos-FGT
  247. Language                                 : Hungarian
  248. Service kind                             : Complete Main
  249. Default                                  : No
  250. Forced                                   : No
  251. Audio #10
  252. ID                                       : 12
  253. Format                                   : AC-3
  254. Format/Info                              : Audio Coding 3
  255. Commercial name                          : Dolby Digital
  256. Codec ID                                 : A_AC3
  257. Duration                                 : 2 h 9 min
  258. Bit rate mode                            : Constant
  259. Bit rate                                 : 640 kb/s
  260. Channel(s)                               : 6 channels
  261. Channel layout                           : L R C LFE Ls Rs
  262. Sampling rate                            : 48.0 kHz
  263. Frame rate                               : 31.250 FPS (1536 SPF)
  264. Bit depth                                : 16 bits
  265. Compression mode                         : Lossy
  266. Stream size                              : 592 MiB (1%)
  267. Title                                    : Spider-Man.Far.from.Home.2019.2160p.BluRay.REMUX.HEVC.DTS-HD.MA.TrueHD.7.1.Atmos-FGT
  268. Language                                 : Polish
  269. Service kind                             : Complete Main
  270. Default                                  : No
  271. Forced                                   : No
  272. Audio #11
  273. ID                                       : 13
  274. Format                                   : DTS XLL
  275. Format/Info                              : Digital Theater Systems
  276. Commercial name                          : DTS-HD Master Audio
  277. Codec ID                                 : A_DTS
  278. Duration                                 : 2 h 9 min
  279. Bit rate mode                            : Variable
  280. Bit rate                                 : 2 361 kb/s
  281. Channel(s)                               : 6 channels
  282. Channel layout                           : C L R Ls Rs LFE
  283. Sampling rate                            : 48.0 kHz
  284. Frame rate                               : 93.750 FPS (512 SPF)
  285. Bit depth                                : 16 bits
  286. Compression mode                         : Lossless
  287. Stream size                              : 2.13 GiB (3%)
  288. Title                                    : Spider-Man.Far.from.Home.2019.2160p.BluRay.REMUX.HEVC.DTS-HD.MA.TrueHD.7.1.Atmos-FGT
  289. Language                                 : Portuguese
  290. Default                                  : No
  291. Forced                                   : No
  292. Audio #12
  293. ID                                       : 14
  294. Format                                   : AC-3
  295. Format/Info                              : Audio Coding 3
  296. Commercial name                          : Dolby Digital
  297. Codec ID                                 : A_AC3
  298. Duration                                 : 2 h 9 min
  299. Bit rate mode                            : Constant
  300. Bit rate                                 : 640 kb/s
  301. Channel(s)                               : 6 channels
  302. Channel layout                           : L R C LFE Ls Rs
  303. Sampling rate                            : 48.0 kHz
  304. Frame rate                               : 31.250 FPS (1536 SPF)
  305. Bit depth                                : 16 bits
  306. Compression mode                         : Lossy
  307. Stream size                              : 592 MiB (1%)
  308. Title                                    : Spider-Man.Far.from.Home.2019.2160p.BluRay.REMUX.HEVC.DTS-HD.MA.TrueHD.7.1.Atmos-FGT
  309. Language                                 : Slovak
  310. Service kind                             : Complete Main
  311. Default                                  : No
  312. Forced                                   : No
  313. Audio #13
  314. ID                                       : 15
  315. Format                                   : AC-3
  316. Format/Info                              : Audio Coding 3
  317. Commercial name                          : Dolby Digital
  318. Codec ID                                 : A_AC3
  319. Duration                                 : 2 h 9 min
  320. Bit rate mode                            : Constant
  321. Bit rate                                 : 640 kb/s
  322. Channel(s)                               : 6 channels
  323. Channel layout                           : L R C LFE Ls Rs
  324. Sampling rate                            : 48.0 kHz
  325. Frame rate                               : 31.250 FPS (1536 SPF)
  326. Bit depth                                : 16 bits
  327. Compression mode                         : Lossy
  328. Stream size                              : 592 MiB (1%)
  329. Title                                    : Spider-Man.Far.from.Home.2019.2160p.BluRay.REMUX.HEVC.DTS-HD.MA.TrueHD.7.1.Atmos-FGT
  330. Language                                 : Spanish
  331. Service kind                             : Complete Main
  332. Default                                  : No
  333. Forced                                   : No
  334. Audio #14
  335. ID                                       : 16
  336. Format                                   : AC-3
  337. Format/Info                              : Audio Coding 3
  338. Commercial name                          : Dolby Digital
  339. Codec ID                                 : A_AC3
  340. Duration                                 : 2 h 9 min
  341. Bit rate mode                            : Constant
  342. Bit rate                                 : 640 kb/s
  343. Channel(s)                               : 6 channels
  344. Channel layout                           : L R C LFE Ls Rs
  345. Sampling rate                            : 48.0 kHz
  346. Frame rate                               : 31.250 FPS (1536 SPF)
  347. Bit depth                                : 16 bits
  348. Compression mode                         : Lossy
  349. Stream size                              : 592 MiB (1%)
  350. Title                                    : Spider-Man.Far.from.Home.2019.2160p.BluRay.REMUX.HEVC.DTS-HD.MA.TrueHD.7.1.Atmos-FGT
  351. Language                                 : Tamil
  352. Service kind                             : Complete Main
  353. Default                                  : No
  354. Forced                                   : No
  355. Audio #15
  356. ID                                       : 17
  357. Format                                   : AC-3
  358. Format/Info                              : Audio Coding 3
  359. Commercial name                          : Dolby Digital
  360. Codec ID                                 : A_AC3
  361. Duration                                 : 2 h 9 min
  362. Bit rate mode                            : Constant
  363. Bit rate                                 : 640 kb/s
  364. Channel(s)                               : 6 channels
  365. Channel layout                           : L R C LFE Ls Rs
  366. Sampling rate                            : 48.0 kHz
  367. Frame rate                               : 31.250 FPS (1536 SPF)
  368. Bit depth                                : 16 bits
  369. Compression mode                         : Lossy
  370. Stream size                              : 592 MiB (1%)
  371. Title                                    : Spider-Man.Far.from.Home.2019.2160p.BluRay.REMUX.HEVC.DTS-HD.MA.TrueHD.7.1.Atmos-FGT
  372. Language                                 : Telugu
  373. Service kind                             : Complete Main
  374. Default                                  : No
  375. Forced                                   : No
  376. Audio #16
  377. ID                                       : 18
  378. Format                                   : AC-3
  379. Format/Info                              : Audio Coding 3
  380. Commercial name                          : Dolby Digital
  381. Codec ID                                 : A_AC3
  382. Duration                                 : 2 h 9 min
  383. Bit rate mode                            : Constant
  384. Bit rate                                 : 640 kb/s
  385. Channel(s)                               : 6 channels
  386. Channel layout                           : L R C LFE Ls Rs
  387. Sampling rate                            : 48.0 kHz
  388. Frame rate                               : 31.250 FPS (1536 SPF)
  389. Bit depth                                : 16 bits
  390. Compression mode                         : Lossy
  391. Stream size                              : 592 MiB (1%)
  392. Title                                    : Spider-Man.Far.from.Home.2019.2160p.BluRay.REMUX.HEVC.DTS-HD.MA.TrueHD.7.1.Atmos-FGT
  393. Language                                 : Thai
  394. Service kind                             : Complete Main
  395. Default                                  : No
  396. Forced                                   : No
  397. Audio #17
  398. ID                                       : 19
  399. Format                                   : AC-3
  400. Format/Info                              : Audio Coding 3
  401. Commercial name                          : Dolby Digital
  402. Codec ID                                 : A_AC3
  403. Duration                                 : 2 h 9 min
  404. Bit rate mode                            : Constant
  405. Bit rate                                 : 640 kb/s
  406. Channel(s)                               : 6 channels
  407. Channel layout                           : L R C LFE Ls Rs
  408. Sampling rate                            : 48.0 kHz
  409. Frame rate                               : 31.250 FPS (1536 SPF)
  410. Bit depth                                : 16 bits
  411. Compression mode                         : Lossy
  412. Stream size                              : 592 MiB (1%)
  413. Title                                    : Spider-Man.Far.from.Home.2019.2160p.BluRay.REMUX.HEVC.DTS-HD.MA.TrueHD.7.1.Atmos-FGT
  414. Language                                 : Turkish
  415. Service kind                             : Complete Main
  416. Default                                  : No
  417. Forced                                   : No
  418. Text #1
  419. ID                                       : 20
  420. Format                                   : UTF-8
  421. Codec ID                                 : S_TEXT/UTF8
  422. Codec ID/Info                            : UTF-8 Plain Text
  423. Duration                                 : 2 h 7 min
  424. Bit rate                                 : 65 b/s
  425. Count of elements                        : 1725
  426. Stream size                              : 61.1 KiB (0%)
  427. Title                                    : English-SRT
  428. Language                                 : English
  429. Default                                  : Yes
  430. Forced                                   : No
  431. Text #2
  432. ID                                       : 21
  433. Format                                   : PGS
  434. Muxing mode                              : zlib
  435. Codec ID                                 : S_HDMV/PGS
  436. Codec ID/Info                            : Picture based subtitle format used on BDs/HD-DVDs
  437. Duration                                 : 2 h 7 min
  438. Bit rate                                 : 38.9 kb/s
  439. Count of elements                        : 3450
  440. Stream size                              : 35.5 MiB (0%)
  441. Title                                    : English-PGS
  442. Language                                 : English
  443. Default                                  : No
  444. Forced                                   : No
  445. Text #3
  446. ID                                       : 22
  447. Format                                   : PGS
  448. Muxing mode                              : zlib
  449. Codec ID                                 : S_HDMV/PGS
  450. Codec ID/Info                            : Picture based subtitle format used on BDs/HD-DVDs
  451. Duration                                 : 2 h 8 min
  452. Bit rate                                 : 42.1 kb/s
  453. Count of elements                        : 3858
  454. Stream size                              : 38.6 MiB (0%)
  455. Title                                    : English-SDH-PGS
  456. Language                                 : English
  457. Default                                  : No
  458. Forced                                   : No
  459. Text #4
  460. ID                                       : 23
  461. Format                                   : PGS
  462. Muxing mode                              : zlib
  463. Codec ID                                 : S_HDMV/PGS
  464. Codec ID/Info                            : Picture based subtitle format used on BDs/HD-DVDs
  465. Duration                                 : 2 h 8 min
  466. Bit rate                                 : 20.2 kb/s
  467. Count of elements                        : 3446
  468. Stream size                              : 18.6 MiB (0%)
  469. Title                                    : Arabic-PGS
  470. Language                                 : Arabic
  471. Default                                  : No
  472. Forced                                   : No
  473. Text #5
  474. ID                                       : 24
  475. Format                                   : PGS
  476. Muxing mode                              : zlib
  477. Codec ID                                 : S_HDMV/PGS
  478. Codec ID/Info                            : Picture based subtitle format used on BDs/HD-DVDs
  479. Duration                                 : 2 h 8 min
  480. Bit rate                                 : 34.7 kb/s
  481. Count of elements                        : 3424
  482. Stream size                              : 31.9 MiB (0%)
  483. Title                                    : Bulgarian-PGS
  484. Language                                 : Bulgarian
  485. Default                                  : No
  486. Forced                                   : No
  487. Text #6
  488. ID                                       : 25
  489. Format                                   : PGS
  490. Muxing mode                              : zlib
  491. Codec ID                                 : S_HDMV/PGS
  492. Codec ID/Info                            : Picture based subtitle format used on BDs/HD-DVDs
  493. Duration                                 : 2 h 8 min
  494. Bit rate                                 : 31.5 kb/s
  495. Count of elements                        : 3460
  496. Stream size                              : 29.0 MiB (0%)
  497. Title                                    : Chinese-PGS
  498. Language                                 : Chinese
  499. Default                                  : No
  500. Forced                                   : No
  501. Text #7
  502. ID                                       : 26
  503. Format                                   : PGS
  504. Muxing mode                              : zlib
  505. Codec ID                                 : S_HDMV/PGS
  506. Codec ID/Info                            : Picture based subtitle format used on BDs/HD-DVDs
  507. Duration                                 : 2 h 8 min
  508. Bit rate                                 : 32.7 kb/s
  509. Count of elements                        : 3454
  510. Stream size                              : 30.1 MiB (0%)
  511. Title                                    : Chinese-PGS
  512. Language                                 : Chinese
  513. Default                                  : No
  514. Forced                                   : No
  515. Text #8
  516. ID                                       : 27
  517. Format                                   : PGS
  518. Muxing mode                              : zlib
  519. Codec ID                                 : S_HDMV/PGS
  520. Codec ID/Info                            : Picture based subtitle format used on BDs/HD-DVDs
  521. Duration                                 : 2 h 8 min
  522. Bit rate                                 : 28.0 kb/s
  523. Count of elements                        : 3496
  524. Stream size                              : 25.8 MiB (0%)
  525. Title                                    : Chinese-PGS
  526. Language                                 : Chinese
  527. Default                                  : No
  528. Forced                                   : No
  529. Text #9
  530. ID                                       : 28
  531. Format                                   : PGS
  532. Muxing mode                              : zlib
  533. Codec ID                                 : S_HDMV/PGS
  534. Codec ID/Info                            : Picture based subtitle format used on BDs/HD-DVDs
  535. Duration                                 : 2 h 8 min
  536. Bit rate                                 : 31.3 kb/s
  537. Count of elements                        : 3436
  538. Stream size                              : 28.8 MiB (0%)
  539. Title                                    : Croatian-PGS
  540. Language                                 : Croatian
  541. Default                                  : No
  542. Forced                                   : No
  543. Text #10
  544. ID                                       : 29
  545. Format                                   : PGS
  546. Muxing mode                              : zlib
  547. Codec ID                                 : S_HDMV/PGS
  548. Codec ID/Info                            : Picture based subtitle format used on BDs/HD-DVDs
  549. Duration                                 : 2 h 8 min
  550. Bit rate                                 : 34.1 kb/s
  551. Count of elements                        : 3356
  552. Stream size                              : 31.3 MiB (0%)
  553. Title                                    : Czech-PGS
  554. Language                                 : Czech
  555. Default                                  : No
  556. Forced                                   : No
  557. Text #11
  558. ID                                       : 30
  559. Format                                   : PGS
  560. Muxing mode                              : zlib
  561. Codec ID                                 : S_HDMV/PGS
  562. Codec ID/Info                            : Picture based subtitle format used on BDs/HD-DVDs
  563. Duration                                 : 2 h 8 min
  564. Bit rate                                 : 31.6 kb/s
  565. Count of elements                        : 3348
  566. Stream size                              : 29.1 MiB (0%)
  567. Title                                    : French-PGS
  568. Language                                 : French
  569. Default                                  : No
  570. Forced                                   : No
  571. Text #12
  572. ID                                       : 31
  573. Format                                   : PGS
  574. Muxing mode                              : zlib
  575. Codec ID                                 : S_HDMV/PGS
  576. Codec ID/Info                            : Picture based subtitle format used on BDs/HD-DVDs
  577. Duration                                 : 2 h 8 min
  578. Bit rate                                 : 37.6 kb/s
  579. Count of elements                        : 3434
  580. Stream size                              : 34.5 MiB (0%)
  581. Title                                    : Greek-PGS
  582. Language                                 : Greek
  583. Default                                  : No
  584. Forced                                   : No
  585. Text #13
  586. ID                                       : 32
  587. Format                                   : PGS
  588. Muxing mode                              : zlib
  589. Codec ID                                 : S_HDMV/PGS
  590. Codec ID/Info                            : Picture based subtitle format used on BDs/HD-DVDs
  591. Duration                                 : 2 h 8 min
  592. Bit rate                                 : 28.4 kb/s
  593. Count of elements                        : 3414
  594. Stream size                              : 26.1 MiB (0%)
  595. Title                                    : Hebrew-PGS
  596. Language                                 : Hebrew
  597. Default                                  : No
  598. Forced                                   : No
  599. Text #14
  600. ID                                       : 33
  601. Format                                   : PGS
  602. Muxing mode                              : zlib
  603. Codec ID                                 : S_HDMV/PGS
  604. Codec ID/Info                            : Picture based subtitle format used on BDs/HD-DVDs
  605. Duration                                 : 2 h 8 min
  606. Bit rate                                 : 32.9 kb/s
  607. Count of elements                        : 3082
  608. Stream size                              : 30.2 MiB (0%)
  609. Title                                    : Hungarian-PGS
  610. Language                                 : Hungarian
  611. Default                                  : No
  612. Forced                                   : No
  613. Text #15
  614. ID                                       : 34
  615. Format                                   : PGS
  616. Muxing mode                              : zlib
  617. Codec ID                                 : S_HDMV/PGS
  618. Codec ID/Info                            : Picture based subtitle format used on BDs/HD-DVDs
  619. Duration                                 : 2 h 8 min
  620. Bit rate                                 : 35.1 kb/s
  621. Count of elements                        : 3270
  622. Stream size                              : 32.3 MiB (0%)
  623. Title                                    : Icelandic-PGS
  624. Language                                 : Icelandic
  625. Default                                  : No
  626. Forced                                   : No
  627. Text #16
  628. ID                                       : 35
  629. Format                                   : PGS
  630. Muxing mode                              : zlib
  631. Codec ID                                 : S_HDMV/PGS
  632. Codec ID/Info                            : Picture based subtitle format used on BDs/HD-DVDs
  633. Duration                                 : 2 h 8 min
  634. Bit rate                                 : 37.8 kb/s
  635. Count of elements                        : 3326
  636. Stream size                              : 34.7 MiB (0%)
  637. Title                                    : Indonesian-PGS
  638. Language                                 : Indonesian
  639. Default                                  : No
  640. Forced                                   : No
  641. Text #17
  642. ID                                       : 36
  643. Format                                   : PGS
  644. Muxing mode                              : zlib
  645. Codec ID                                 : S_HDMV/PGS
  646. Codec ID/Info                            : Picture based subtitle format used on BDs/HD-DVDs
  647. Duration                                 : 2 h 8 min
  648. Bit rate                                 : 28.6 kb/s
  649. Count of elements                        : 3482
  650. Stream size                              : 26.3 MiB (0%)
  651. Title                                    : Korean-PGS
  652. Language                                 : Korean
  653. Default                                  : No
  654. Forced                                   : No
  655. Text #18
  656. ID                                       : 37
  657. Format                                   : PGS
  658. Muxing mode                              : zlib
  659. Codec ID                                 : S_HDMV/PGS
  660. Codec ID/Info                            : Picture based subtitle format used on BDs/HD-DVDs
  661. Duration                                 : 2 h 8 min
  662. Bit rate                                 : 32.1 kb/s
  663. Count of elements                        : 3326
  664. Stream size                              : 29.6 MiB (0%)
  665. Title                                    : Polish-PGS
  666. Language                                 : Polish
  667. Default                                  : No
  668. Forced                                   : No
  669. Text #19
  670. ID                                       : 38
  671. Format                                   : PGS
  672. Muxing mode                              : zlib
  673. Codec ID                                 : S_HDMV/PGS
  674. Codec ID/Info                            : Picture based subtitle format used on BDs/HD-DVDs
  675. Duration                                 : 2 h 8 min
  676. Bit rate                                 : 34.4 kb/s
  677. Count of elements                        : 3350
  678. Stream size                              : 31.6 MiB (0%)
  679. Title                                    : Portuguese-PGS
  680. Language                                 : Portuguese
  681. Default                                  : No
  682. Forced                                   : No
  683. Text #20
  684. ID                                       : 39
  685. Format                                   : PGS
  686. Muxing mode                              : zlib
  687. Codec ID                                 : S_HDMV/PGS
  688. Codec ID/Info                            : Picture based subtitle format used on BDs/HD-DVDs
  689. Duration                                 : 2 h 8 min
  690. Bit rate                                 : 37.0 kb/s
  691. Count of elements                        : 3350
  692. Stream size                              : 34.0 MiB (0%)
  693. Title                                    : Portuguese-PGS
  694. Language                                 : Portuguese
  695. Default                                  : No
  696. Forced                                   : No
  697. Text #21
  698. ID                                       : 40
  699. Format                                   : PGS
  700. Muxing mode                              : zlib
  701. Codec ID                                 : S_HDMV/PGS
  702. Codec ID/Info                            : Picture based subtitle format used on BDs/HD-DVDs
  703. Duration                                 : 2 h 8 min
  704. Bit rate                                 : 35.0 kb/s
  705. Count of elements                        : 3176
  706. Stream size                              : 32.2 MiB (0%)
  707. Title                                    : Romanian-PGS
  708. Language                                 : Romanian
  709. Default                                  : No
  710. Forced                                   : No
  711. Text #22
  712. ID                                       : 41
  713. Format                                   : PGS
  714. Muxing mode                              : zlib
  715. Codec ID                                 : S_HDMV/PGS
  716. Codec ID/Info                            : Picture based subtitle format used on BDs/HD-DVDs
  717. Duration                                 : 2 h 8 min
  718. Bit rate                                 : 35.0 kb/s
  719. Count of elements                        : 3454
  720. Stream size                              : 32.2 MiB (0%)
  721. Title                                    : Serbian-PGS
  722. Language                                 : Serbian
  723. Default                                  : No
  724. Forced                                   : No
  725. Text #23
  726. ID                                       : 42
  727. Format                                   : PGS
  728. Muxing mode                              : zlib
  729. Codec ID                                 : S_HDMV/PGS
  730. Codec ID/Info                            : Picture based subtitle format used on BDs/HD-DVDs
  731. Duration                                 : 2 h 8 min
  732. Bit rate                                 : 31.6 kb/s
  733. Count of elements                        : 3438
  734. Stream size                              : 29.1 MiB (0%)
  735. Title                                    : Slovak-PGS
  736. Language                                 : Slovak
  737. Default                                  : No
  738. Forced                                   : No
  739. Text #24
  740. ID                                       : 43
  741. Format                                   : PGS
  742. Muxing mode                              : zlib
  743. Codec ID                                 : S_HDMV/PGS
  744. Codec ID/Info                            : Picture based subtitle format used on BDs/HD-DVDs
  745. Duration                                 : 2 h 8 min
  746. Bit rate                                 : 29.6 kb/s
  747. Count of elements                        : 2920
  748. Stream size                              : 27.2 MiB (0%)
  749. Title                                    : Slovenian-PGS
  750. Language                                 : Slovenian
  751. Default                                  : No
  752. Forced                                   : No
  753. Text #25
  754. ID                                       : 44
  755. Format                                   : PGS
  756. Muxing mode                              : zlib
  757. Codec ID                                 : S_HDMV/PGS
  758. Codec ID/Info                            : Picture based subtitle format used on BDs/HD-DVDs
  759. Duration                                 : 2 h 8 min
  760. Bit rate                                 : 36.5 kb/s
  761. Count of elements                        : 3438
  762. Stream size                              : 33.6 MiB (0%)
  763. Title                                    : Spanish-PGS
  764. Language                                 : Spanish
  765. Default                                  : No
  766. Forced                                   : No
  767. Text #26
  768. ID                                       : 45
  769. Format                                   : PGS
  770. Muxing mode                              : zlib
  771. Codec ID                                 : S_HDMV/PGS
  772. Codec ID/Info                            : Picture based subtitle format used on BDs/HD-DVDs
  773. Duration                                 : 2 h 8 min
  774. Bit rate                                 : 33.0 kb/s
  775. Count of elements                        : 3504
  776. Stream size                              : 30.4 MiB (0%)
  777. Title                                    : Thai-PGS
  778. Language                                 : Thai
  779. Default                                  : No
  780. Forced                                   : No
  781. Text #27
  782. ID                                       : 46
  783. Format                                   : PGS
  784. Muxing mode                              : zlib
  785. Codec ID                                 : S_HDMV/PGS
  786. Codec ID/Info                            : Picture based subtitle format used on BDs/HD-DVDs
  787. Duration                                 : 2 h 8 min
  788. Bit rate                                 : 36.7 kb/s
  789. Count of elements                        : 3436
  790. Stream size                              : 33.8 MiB (0%)
  791. Title                                    : Turkish-PGS
  792. Language                                 : Turkish
  793. Default                                  : No
  794. Forced                                   : No
  795. Text #28
  796. ID                                       : 47
  797. Format                                   : PGS
  798. Muxing mode                              : zlib
  799. Codec ID                                 : S_HDMV/PGS
  800. Codec ID/Info                            : Picture based subtitle format used on BDs/HD-DVDs
  801. Duration                                 : 2 h 8 min
  802. Bit rate                                 : 237 b/s
  803. Count of elements                        : 22
  804. Stream size                              : 224 KiB (0%)
  805. Title                                    : French-FORCED-PGS
  806. Language                                 : French
  807. Default                                  : No
  808. Forced                                   : No
  809. Menu
  810. 00:00:00.000                             : en:Chapter 01
  811. 00:09:35.032                             : en:Chapter 02
  812. 00:16:06.715                             : en:Chapter 03
  813. 00:25:18.475                             : en:Chapter 04
  814. 00:35:26.332                             : en:Chapter 05
  815. 00:41:57.014                             : en:Chapter 06
  816. 00:49:49.736                             : en:Chapter 07
  817. 00:57:09.134                             : en:Chapter 08
  818. 01:04:50.636                             : en:Chapter 09
  819. 01:15:57.052                             : en:Chapter 10
  820. 01:22:49.089                             : en:Chapter 11
  821. 01:29:25.193                             : en:Chapter 12
  822. 01:36:43.214                             : en:Chapter 13
  823. 01:44:46.989                             : en:Chapter 14
  824. 01:52:17.147                             : en:Chapter 15
  825. 01:57:45.433                             : en:Chapter 16
复制代码






                                       
                                       

                                       
                                       
                                       




蜘蛛侠:豪杰远征/新蜘蛛侠2 Spider-Man.Far.from.Home.2019.2160p.BluRay.REMUX.HEVC.DTS-HD.MA.TrueHD.7.1.Atmos-FGT 67.83GB

Spider-Man.Far.from.Home.2019.2160p.BluRay.REMUX.HEVC.DTS-HD.MA.TrueHD.7.1.Atmos.torrent

170.16 KB, 下载次数: 61, 下载积分: 蓝光币 -2

回复

使用道具 举报

懒得打字嘛,点击右侧快捷回复 【右侧内容,后台自定义】
您需要登录后才可以回帖 登录 | 立即加入

本版积分规则

Archiver| |网站地图

Copyright © 2024 Comsenz Inc. Powered by 蓝光电影网

本站内容由用户自主分享和转载自互联网,转载目的在于传递更多信息,并不代表本网赞同其观点和对其真实性负责。

如有侵权、违反国家法律政策行为,请联系我们,我们会第一时间及时清除和处理!

举报反馈邮箱:4k1080.com@gmail.com

快速回复 返回顶部 返回列表