找回密码

查看: 2188|回复: 1

[动作] 狩猎 Hunted.2020.1080p.BluRay.REMUX.AVC.DTS-HD.MA.5.1-FGT 16.99GB

[复制链接]
蓝光币
2039
发表于 2021-5-24 09:05:30 | 显示全部楼层 |阅读模式


◎译  名 狩猎/Cosmogonie/大猎逃(台)
◎片  名 Hunted
◎年  代 2020
◎产  地 比利时,法国,爱尔兰
◎类  别 行动 / 惊悚
◎语  言 英语
◎上映日期 2020-08-21(加拿大奇异电影节)
◎豆瓣评分 5.0/10 from 443 users
◎豆瓣链接 https://movie.douban.com/subject/35156050/
◎片  长 86分钟
◎导  演 文森特·帕兰德 Vincent Paronnaud
◎编  剧 文森特·帕兰德 Vincent Paronnaud / Léa Pernollet / 史蒂芬·希尔兹 Stephen Shields / 戴维·H·皮克林 David H. Pickering
◎主  演 露西·德拜 Lucie Debay
       克里斯蒂安·布朗查特 Christian Bronchart
       阿里耶·沃索尔特 Arieh Worthalter
       赖恩·布罗迪 Ryan Brodie
       Kevin Van Doorslaer
◎标  签 惊悚 | 比利时 | 犯罪 | 暴力 | 2020 | 可骇 | 比利时电影 | 2021
◎简  介


  夏娃在酒吧碰见了她以为是一个有魅力的家伙。 但是,一旦她意想到自己碰到了神经病患者和他的朋友,工作就大错特错了。 他们停止了追逐灭亡行动,直到她决议与森林作斗争,成为她的唯一盟友。
  1. Video
  2. ID                                       : 1
  3. ID in the original source medium         : 4113 (0x1011)
  4. Format                                   : AVC
  5. Format/Info                              : Advanced Video Codec
  6. Format profile                           : [email protected]
  7. Format settings                          : CABAC / 4 Ref Frames
  8. Format settings, CABAC                   : Yes
  9. Format settings, Reference frames        : 4 frames
  10. Codec ID                                 : V_MPEG4/ISO/AVC
  11. Duration                                 : 1 h 27 min
  12. Bit rate mode                            : Variable
  13. Bit rate                                 : 25.9 Mb/s
  14. Maximum bit rate                         : 38.0 Mb/s
  15. Width                                    : 1 920 pixels
  16. Height                                   : 1 080 pixels
  17. Display aspect ratio                     : 16:9
  18. Frame rate mode                          : Constant
  19. Frame rate                               : 23.976 (24000/1001/189150) FPS
  20. Color space                              : YUV
  21. Chroma subsampling                       : 4:2:0
  22. Bit depth                                : 8 bits
  23. Scan type                                : Progressive
  24. Bits/(Pixel*Frame)                       : 0.522
  25. Stream size                              : 15.8 GiB (93%)
  26. Language                                 : English
  27. Default                                  : No
  28. Forced                                   : No
  29. Original source medium                   : Blu-ray
  30. Audio
  31. ID                                       : 2
  32. ID in the original source medium         : 4352 (0x1100)
  33. Format                                   : DTS XLL
  34. Format/Info                              : Digital Theater Systems
  35. Commercial name                          : DTS-HD Master Audio
  36. Codec ID                                 : A_DTS
  37. Duration                                 : 1 h 27 min
  38. Bit rate mode                            : Variable
  39. Bit rate                                 : 1 986 kb/s
  40. Channel(s)                               : 6 channels
  41. Channel layout                           : C L R Ls Rs LFE
  42. Sampling rate                            : 48.0 kHz
  43. Frame rate                               : 93.750 FPS (512 SPF)
  44. Bit depth                                : 16 bits
  45. Compression mode                         : Lossless
  46. Stream size                              : 1.21 GiB (7%)
  47. Title                                    : DTS-HD MA 5.1
  48. Language                                 : English
  49. Default                                  : Yes
  50. Forced                                   : No
  51. Original source medium                   : Blu-ray
  52. Text #1
  53. ID                                       : 3
  54. Format                                   : UTF-8
  55. Codec ID                                 : S_TEXT/UTF8
  56. Codec ID/Info                            : UTF-8 Plain Text
  57. Duration                                 : 1 h 22 min
  58. Bit rate                                 : 33 b/s
  59. Count of elements                        : 987
  60. Stream size                              : 20.3 KiB (0%)
  61. Title                                    : English-SRT
  62. Language                                 : English
  63. Default                                  : Yes
  64. Forced                                   : No
  65. Text #2
  66. ID                                       : 4
  67. ID in the original source medium         : 4608 (0x1200)
  68. Format                                   : PGS
  69. Muxing mode                              : zlib
  70. Codec ID                                 : S_HDMV/PGS
  71. Codec ID/Info                            : Picture based subtitle format used on BDs/HD-DVDs
  72. Duration                                 : 1 h 26 min
  73. Bit rate                                 : 26.1 kb/s
  74. Count of elements                        : 2296
  75. Stream size                              : 16.1 MiB (0%)
  76. Title                                    : English-PGS
  77. Language                                 : English
  78. Default                                  : No
  79. Forced                                   : No
  80. Original source medium                   : Blu-ray
  81. Text #3
  82. ID                                       : 5
  83. ID in the original source medium         : 4609 (0x1201)
  84. Format                                   : PGS
  85. Muxing mode                              : zlib
  86. Codec ID                                 : S_HDMV/PGS
  87. Codec ID/Info                            : Picture based subtitle format used on BDs/HD-DVDs
  88. Duration                                 : 1 h 21 min
  89. Bit rate                                 : 21.5 kb/s
  90. Count of elements                        : 1334
  91. Stream size                              : 12.5 MiB (0%)
  92. Title                                    : French-PGS
  93. Language                                 : French
  94. Default                                  : No
  95. Forced                                   : No
  96. Original source medium                   : Blu-ray
  97. Text #4
  98. ID                                       : 6
  99. ID in the original source medium         : 4610 (0x1202)
  100. Format                                   : PGS
  101. Muxing mode                              : zlib
  102. Codec ID                                 : S_HDMV/PGS
  103. Codec ID/Info                            : Picture based subtitle format used on BDs/HD-DVDs
  104. Duration                                 : 1 h 21 min
  105. Bit rate                                 : 21.2 kb/s
  106. Count of elements                        : 1360
  107. Stream size                              : 12.4 MiB (0%)
  108. Title                                    : Spanish-PGS
  109. Language                                 : Spanish
  110. Default                                  : No
  111. Forced                                   : No
  112. Original source medium                   : Blu-ray
  113. Menu
  114. 00:00:00.000                             : Chapter 01
  115. 00:08:47.860                             : Chapter 02
  116. 00:19:10.524                             : Chapter 03
  117. 00:28:48.518                             : Chapter 04
  118. 00:38:13.833                             : Chapter 05
  119. 00:49:17.829                             : Chapter 06
  120. 01:00:24.329                             : Chapter 07
  121. 01:09:22.324                             : Chapter 08
  122. 01:18:51.852                             : Chapter 09
复制代码




                                       
                                       

                                       
                                       
                                       




回复

使用道具 举报

蓝光币
279
发表于 2022-2-21 14:31:07 | 显示全部楼层
楼主发贴辛苦了,谢谢楼主分享!我觉得蓝光电影网是注册对了!
回复

使用道具 举报

懒得打字嘛,点击右侧快捷回复 【右侧内容,后台自定义】
您需要登录后才可以回帖 登录 | 立即加入

本版积分规则

Archiver| |网站地图

Copyright © 2024 Comsenz Inc. Powered by 蓝光电影网

本站内容由用户自主分享和转载自互联网,转载目的在于传递更多信息,并不代表本网赞同其观点和对其真实性负责。

如有侵权、违反国家法律政策行为,请联系我们,我们会第一时间及时清除和处理!

举报反馈邮箱:4k1080.com@gmail.com

快速回复 返回顶部 返回列表