找回密码

查看: 2835|回复: 0

[惊悚] 人狼恶/狩猎追杀 Hunter.Hunter.2020.1080p.BluRay.REMUX.AVC.DTS-HD.MA.5.1-FGT 25.42GB

[复制链接]
蓝光币
2048
发表于 2021-6-23 09:42:55 | 显示全部楼层 |阅读模式


◎译  名 人狼恶/狩猎追杀
◎片  名 Hunter Hunter
◎年  代 2020
◎产  地 加拿大,美国
◎类  别 惊悚 / 可骇
◎语  言 英语
◎上映日期 2020-12-18(美国)
◎豆瓣评分 5.7/10 from 412 users
◎豆瓣链接 https://movie.douban.com/subject/35240766/
◎片  长 94分钟
◎导  演 肖恩·林登 Shawn Linden
◎编  剧 肖恩·林登 Shawn Linden
◎主  演 卡米尔·苏利文 Camille Sullivan
       Summer H. Howell Summer H. Howell
       戴文·萨瓦 Devon Sawa
       尼克·斯塔尔 Nick Stahl
       加布里埃尔·丹尼尔斯 Gabriel Daniels
       劳伦·科克伦 Lauren Cochrane
       杰德·迈克尔 Jade Michael
       埃里克·阿塔瓦尔 Erik Athavale
       卡尔·索达森 Karl Thordarson
       布莱克·泰勒 Blake Taylor
       萨拉·康斯提布尔 Sarah Constible
◎标  签 惊悚 | 血腥 | 犯罪 | 美国 | 2020 | 可骇 | 剧情 | 人性
◎简  介


  猎人一家三口在森林里避世隐居,遭到一只野狼的威胁。在搜捕这只狼的进程中,他们遭碰到了更加邪恶的生物,一个专门摧残女性的连环杀手.....
  1. Video
  2. ID                                       : 1
  3. ID in the original source medium         : 4113 (0x1011)
  4. Format                                   : AVC
  5. Format/Info                              : Advanced Video Codec
  6. Format profile                           : [email protected]
  7. Format settings                          : CABAC / 4 Ref Frames
  8. Format settings, CABAC                   : Yes
  9. Format settings, Reference frames        : 4 frames
  10. Codec ID                                 : V_MPEG4/ISO/AVC
  11. Duration                                 : 1 h 33 min
  12. Bit rate mode                            : Constant
  13. Bit rate                                 : 34.0 Mb/s
  14. Width                                    : 1 920 pixels
  15. Height                                   : 1 080 pixels
  16. Display aspect ratio                     : 16:9
  17. Frame rate mode                          : Constant
  18. Frame rate                               : 23.976 (24000/1001/189150) FPS
  19. Color space                              : YUV
  20. Chroma subsampling                       : 4:2:0
  21. Bit depth                                : 8 bits
  22. Scan type                                : Progressive
  23. Bits/(Pixel*Frame)                       : 0.684
  24. Stream size                              : 21.1 GiB (83%)
  25. Language                                 : English
  26. Default                                  : No
  27. Forced                                   : No
  28. Original source medium                   : Blu-ray
  29. Audio #1
  30. ID                                       : 2
  31. ID in the original source medium         : 4352 (0x1100)
  32. Format                                   : DTS XLL
  33. Format/Info                              : Digital Theater Systems
  34. Commercial name                          : DTS-HD Master Audio
  35. Codec ID                                 : A_DTS
  36. Duration                                 : 1 h 33 min
  37. Bit rate mode                            : Variable
  38. Bit rate                                 : 3 378 kb/s
  39. Channel(s)                               : 6 channels
  40. Channel layout                           : C L R Ls Rs LFE
  41. Sampling rate                            : 48.0 kHz
  42. Frame rate                               : 93.750 FPS (512 SPF)
  43. Bit depth                                : 24 bits
  44. Compression mode                         : Lossless
  45. Stream size                              : 2.20 GiB (9%)
  46. Title                                    : DTS-HD MA 5.1
  47. Language                                 : English
  48. Default                                  : Yes
  49. Forced                                   : No
  50. Original source medium                   : Blu-ray
  51. Audio #2
  52. ID                                       : 3
  53. ID in the original source medium         : 4353 (0x1101)
  54. Format                                   : DTS XLL
  55. Format/Info                              : Digital Theater Systems
  56. Commercial name                          : DTS-HD Master Audio
  57. Codec ID                                 : A_DTS
  58. Duration                                 : 1 h 33 min
  59. Bit rate mode                            : Variable
  60. Bit rate                                 : 1 630 kb/s
  61. Channel(s)                               : 2 channels
  62. Channel layout                           : L R
  63. Sampling rate                            : 48.0 kHz
  64. Frame rate                               : 93.750 FPS (512 SPF)
  65. Bit depth                                : 24 bits
  66. Compression mode                         : Lossless
  67. Stream size                              : 1.06 GiB (4%)
  68. Title                                    : DTS-HD MA 2.0
  69. Language                                 : English
  70. Default                                  : No
  71. Forced                                   : No
  72. Original source medium                   : Blu-ray
  73. Audio #3
  74. ID                                       : 4
  75. ID in the original source medium         : 4354 (0x1102)
  76. Format                                   : DTS XLL
  77. Format/Info                              : Digital Theater Systems
  78. Commercial name                          : DTS-HD Master Audio
  79. Codec ID                                 : A_DTS
  80. Duration                                 : 1 h 33 min
  81. Bit rate mode                            : Variable
  82. Bit rate                                 : 1 638 kb/s
  83. Channel(s)                               : 2 channels
  84. Channel layout                           : L R
  85. Sampling rate                            : 48.0 kHz
  86. Frame rate                               : 93.750 FPS (512 SPF)
  87. Bit depth                                : 24 bits
  88. Compression mode                         : Lossless
  89. Stream size                              : 1.07 GiB (4%)
  90. Title                                    : DTS-HD MA 2.0
  91. Language                                 : English
  92. Default                                  : No
  93. Forced                                   : No
  94. Original source medium                   : Blu-ray
  95. Text #1
  96. ID                                       : 5
  97. Format                                   : UTF-8
  98. Codec ID                                 : S_TEXT/UTF8
  99. Codec ID/Info                            : UTF-8 Plain Text
  100. Duration                                 : 1 h 26 min
  101. Bit rate                                 : 31 b/s
  102. Count of elements                        : 815
  103. Stream size                              : 19.7 KiB (0%)
  104. Title                                    : SRT
  105. Language                                 : English
  106. Default                                  : Yes
  107. Forced                                   : No
  108. Text #2
  109. ID                                       : 6
  110. ID in the original source medium         : 4608 (0x1200)
  111. Format                                   : PGS
  112. Muxing mode                              : zlib
  113. Codec ID                                 : S_HDMV/PGS
  114. Codec ID/Info                            : Picture based subtitle format used on BDs/HD-DVDs
  115. Duration                                 : 1 h 30 min
  116. Bit rate                                 : 22.5 kb/s
  117. Count of elements                        : 1553
  118. Stream size                              : 14.6 MiB (0%)
  119. Language                                 : English
  120. Default                                  : No
  121. Forced                                   : No
  122. Original source medium                   : Blu-ray
  123. Text #3
  124. ID                                       : 7
  125. ID in the original source medium         : 4609 (0x1201)
  126. Format                                   : PGS
  127. Muxing mode                              : zlib
  128. Codec ID                                 : S_HDMV/PGS
  129. Codec ID/Info                            : Picture based subtitle format used on BDs/HD-DVDs
  130. Duration                                 : 1 h 27 min
  131. Bit rate                                 : 19.9 kb/s
  132. Count of elements                        : 1279
  133. Stream size                              : 12.4 MiB (0%)
  134. Language                                 : Spanish
  135. Default                                  : No
  136. Forced                                   : No
  137. Original source medium                   : Blu-ray
  138. Menu
  139. 00:00:00.000                             : Chapter 01
  140. 00:08:04.609                             : Chapter 02
  141. 00:16:31.323                             : Chapter 03
  142. 00:23:29.616                             : Chapter 04
  143. 00:30:48.805                             : Chapter 05
  144. 00:38:18.337                             : Chapter 06
  145. 00:45:41.697                             : Chapter 07
  146. 00:54:09.913                             : Chapter 08
  147. 01:00:42.847                             : Chapter 09
  148. 01:08:37.196                             : Chapter 10
  149. 01:16:06.603                             : Chapter 11
  150. 01:22:55.553                             : Chapter 12
复制代码




                                       
                                       

                                       
                                       
                                       




回复

使用道具 举报

懒得打字嘛,点击右侧快捷回复 【右侧内容,后台自定义】
您需要登录后才可以回帖 登录 | 立即加入

本版积分规则

Archiver| |网站地图

Copyright © 2024 Comsenz Inc. Powered by 蓝光电影网

本站内容由用户自主分享和转载自互联网,转载目的在于传递更多信息,并不代表本网赞同其观点和对其真实性负责。

如有侵权、违反国家法律政策行为,请联系我们,我们会第一时间及时清除和处理!

举报反馈邮箱:4k1080.com@gmail.com

快速回复 返回顶部 返回列表