找回密码

查看: 3556|回复: 0

[动作] 弯刀杀戮/弯刀2 Machete.Kills.2013.1080p.BluRay.x264-SPARKS 7.65GB

[复制链接]
蓝光币
2039
发表于 2019-6-12 12:36:11 | 显示全部楼层 |阅读模式


◎译  名 弯刀杀戮 / 弯刀2 / 弯刀:风云复兴 / 杀千刀 / 索女·重炮·神经刀(港) / 绝煞刀锋2(台)
◎片  名 Machete Kills
◎年  代 2013
◎产  地 美国 / 俄罗斯
◎类  别 行动 / 惊悚 / 犯罪
◎语  言 英语
◎上映日期 2013-10-11(美国)
◎IMDb评分  5.6/10 from 69974 users
◎IMDb链接  http://www.imdb.com/title/tt2002718
◎豆瓣评分 5.8/10 from 11293 users
◎豆瓣链接 https://movie.douban.com/subject/10342838/
◎片  长 107分钟
◎导  演 罗伯特·罗德里格兹 Robert Rodriguez
◎编  剧 罗伯特·罗德里格兹 Robert Rodriguez / Kyle Ward
◎主  演 丹尼·特乔 Danny Trejo
      米歇尔·罗德里格兹 Michelle Rodriguez
      索菲娅·维加拉 Sofía Vergara
      艾梅柏·希尔德 Amber Heard
      Lady Gaga
      安东尼奥·班德拉斯 Antonio Banderas
      小库珀·古丁 Cuba Gooding Jr.
      杰西卡·阿尔芭 Jessica Alba
      德米安·比齐尔 Demián Bichir
      梅尔·吉布森 Mel Gibson
      查理·辛 Charlie Sheen

◎标  签 美国 | 暴力 | 行动 | Cult | B级片 | 血腥 | 2013 | 犯罪
◎简  介  
  身怀特技的弯刀(丹尼·特乔 Danny Trejo 饰)在清查犯罪构造卡特尔的行动中,其女友兼同伴ICE奸细莎塔娜(杰西卡·阿尔芭 Jessica Alba 饰)失慎遇害,弯刀也被作为杀人凶手判处绞刑。关键时辰,美国总统奥秘将其招至华府,命弯刀前往美国和墨西哥的鸿沟,观察反动武装构造头子马科斯·门德斯反动者(德米安·比齐尔 Demián Bichir 饰)能否有攻击美国的筹算,一旦证据确实即可将其抹杀。弯刀率先与圣·安东尼奥蜜斯(艾梅柏·希尔德 Amber Heard 饰)联系,随后潜入墨西哥见到门德斯。此时的门德斯恍如已经品德割裂,他将导弹的控制系统与自己的心脏相连,一旦遇害导弹便自动飞向美国华府,而他的人头又高达万万美金,以致于弯刀被迫担当起庇护门德斯人命的使命。
返回美国的门路杀机四伏,凶恶很是,更成心想不到的诡计期待着他……
◎获奖情况  
  第34届金酸莓奖(2014)
  最差女配角(提名) Lady Gaga

  1. Video
  2. ID                                       : 1
  3. Format                                   : AVC
  4. Format/Info                              : Advanced Video Codec
  5. Format profile                           : [email protected]
  6. Format settings, CABAC                   : Yes
  7. Format settings, ReFrames                : 4 frames
  8. Codec ID                                 : V_MPEG4/ISO/AVC
  9. Duration                                 : 1 h 48 min
  10. Bit rate                                 : 8 625 kb/s
  11. Width                                    : 1 920 pixels
  12. Height                                   : 1 040 pixels
  13. Display aspect ratio                     : 1.85:1
  14. Frame rate mode                          : Constant
  15. Frame rate                               : 23.976 (24000/1001) FPS
  16. Color space                              : YUV
  17. Chroma subsampling                       : 4:2:0
  18. Bit depth                                : 8 bits
  19. Scan type                                : Progressive
  20. Bits/(Pixel*Frame)                       : 0.180
  21. Stream size                              : 6.36 GiB (83%)
  22. Writing library                          : x264 core 140 r2377 1ca7bb9
  23. Encoding settings                        : cabac=1 / ref=4 / deblock=1:0:0 / analyse=0x3:0x133 / me=umh / subme=8 / psy=1 / psy_rd=1.00:0.00 / mixed_ref=1 / me_range=16 / chroma_me=1 / trellis=1 / 8x8dct=1 / cqm=0 / deadzone=21,11 / fast_pskip=0 / chroma_qp_offset=-2 / threads=18 / lookahead_threads=3 / sliced_threads=0 / nr=0 / decimate=1 / interlaced=0 / bluray_compat=0 / constrained_intra=0 / bframes=3 / b_pyramid=2 / b_adapt=2 / b_bias=0 / direct=3 / weightb=1 / open_gop=0 / weightp=2 / keyint=250 / keyint_min=23 / scenecut=40 / intra_refresh=0 / rc_lookahead=50 / rc=2pass / mbtree=1 / bitrate=8625 / ratetol=1.0 / qcomp=0.60 / qpmin=0 / qpmax=69 / qpstep=4 / cplxblur=20.0 / qblur=0.5 / ip_ratio=1.40 / aq=1:1.00
  24. Language                                 : English
  25. Default                                  : Yes
  26. Forced                                   : No
  27. Audio
  28. ID                                       : 2
  29. Format                                   : DTS
  30. Format/Info                              : Digital Theater Systems
  31. Mode                                     : 16
  32. Format settings, Endianness              : Big
  33. Codec ID                                 : A_DTS
  34. Duration                                 : 1 h 48 min
  35. Bit rate mode                            : Constant
  36. Bit rate                                 : 1 509 kb/s
  37. Channel(s)                               : 6 channels
  38. Channel positions                        : Front: L C R, Side: L R, LFE
  39. Sampling rate                            : 48.0 kHz
  40. Frame rate                               : 93.750 FPS (512 spf)
  41. Bit depth                                : 24 bits
  42. Compression mode                         : Lossy
  43. Stream size                              : 1.14 GiB (15%)
  44. Language                                 : English
  45. Default                                  : Yes
  46. Forced                                   : No
  47. Text
  48. ID                                       : 3
  49. Format                                   : UTF-8
  50. Codec ID                                 : S_TEXT/UTF8
  51. Codec ID/Info                            : UTF-8 Plain Text
  52. Language                                 : English
  53. Default                                  : No
  54. Forced                                   : No
  55. Menu
  56. 00:00:00.000                             : en:00:00:00.000
  57. 00:07:48.760                             : en:00:07:48.760
  58. 00:12:12.398                             : en:00:12:12.398
  59. 00:19:27.583                             : en:00:19:27.583
  60. 00:25:25.399                             : en:00:25:25.399
  61. 00:30:35.959                             : en:00:30:35.959
  62. 00:34:15.345                             : en:00:34:15.345
  63. 00:39:33.121                             : en:00:39:33.121
  64. 00:45:35.107                             : en:00:45:35.107
  65. 00:50:30.236                             : en:00:50:30.236
  66. 00:55:07.429                             : en:00:55:07.429
  67. 00:59:08.295                             : en:00:59:08.295
  68. 01:06:55.929                             : en:01:06:55.929
  69. 01:11:56.938                             : en:01:11:56.938
  70. 01:16:38.177                             : en:01:16:38.177
  71. 01:20:34.538                             : en:01:20:34.538
  72. 01:25:08.812                             : en:01:25:08.812
  73. 01:30:13.158                             : en:01:30:13.158
  74. 01:37:43.483                             : en:01:37:43.483
  75. 01:41:54.233                             : en:01:41:54.233
复制代码









                                       
                                       

                                       
                                       
                                       




回复

使用道具 举报

懒得打字嘛,点击右侧快捷回复 【右侧内容,后台自定义】
您需要登录后才可以回帖 登录 | 立即加入

本版积分规则

Archiver| |网站地图

Copyright © 2024 Comsenz Inc. Powered by 蓝光电影网

本站内容由用户自主分享和转载自互联网,转载目的在于传递更多信息,并不代表本网赞同其观点和对其真实性负责。

如有侵权、违反国家法律政策行为,请联系我们,我们会第一时间及时清除和处理!

举报反馈邮箱:4k1080.com@gmail.com

快速回复 返回顶部 返回列表