找回密码

查看: 1406|回复: 3

[喜剧] 皇牌特务勇破摧花党 Kiss.the.Girls.and.Make.Them.Die.1966.720p.BluRay.x264-OLDTiME 4.83GB

[复制链接]
蓝光币
2027
发表于 2022-5-28 19:59:09 | 显示全部楼层 |阅读模式


◎译  名 皇牌特务勇破摧花党 / Se tutte le donne del mondo... / Operazione Paradiso
◎片  名 Kiss the Girls and Make Them Die
◎年  代 1966
◎产  地 意大利
◎类  别 笑剧 / 行动
◎语  言 英语
◎上映日期 1966-11-18
◎IMDb链接 https://www.imdb.com/title/tt0060592/
◎豆瓣链接 https://movie.douban.com/subject/1735212/
◎片  长 106 分钟
◎导  演 亨利·莱文 Henry Levin (id:1019327)
       阿尔杜伊诺·马尤里 Arduino Maiuri (id:1038573)
◎编  剧 阿尔杜伊诺·马尤里 Arduino Maiuri (id:1038573)
       杰克·普尔曼 Jack Pulman (id:1012890)
◎演  员 迈克·康纳斯 Mike Connors (id:1025322)
       多萝茜·普罗文妮 Dorothy Provine (id:1004901)
       雷夫·瓦朗 Raf Vallone (id:1007173)
       特里-托马斯 Terry-Thomas (id:1156580)
       玛格丽特·李 Margaret Lee (id:1107014)
       妮可莱塔·玛西亚弗利 Nicoletta Machiavelli (id:1121169)
       贝弗莉·亚当斯 Beverly Adams (id:1041709)
       玛丽卢·托洛 Marilù Tolo (id:1016804)
       George Leech George Leech (id:1112950)
       Oliver MacGreevy Oliver MacGreevy (id:1115096)
       Eliezer Gomes Eliezer Gomes (id:1093107)
       科斯梅·杜斯·桑托斯 Cosme dos Santos (id:1090028)
       Adriano Reys Adriano Reys (id:1087887)
       桑德罗·铎尼 Sandro Dori (id:1085671)
       尼里奥·贝尔纳迪 Nerio Bernardi (id:1065136)
       杰克·格威利姆 Jack Gwillim (id:1054855)
       迪诺·德·劳伦提斯 Dino De Laurentiis (id:1088425)
       阿尔杜伊诺·马尤里 Arduino Maiuri (id:1038573)
       Mario Nascimbene Mario Nascimbene (id:1038215)
       阿尔多·通迪 Aldo Tonti (id:1033852)
       拉尔夫·坎普伦 Ralph Kemplen (id:1029784)
       Mario Garbuglia Mario Garbuglia (id:1020869)
       玛丽亚·德·马蒂斯 Maria De Matteis (id:1282042)
       皮耶罗·格拉尔迪 Piero Gherardi (id:1042571)
       Alberto Pieralisi Alberto Pieralisi (id:1128815)
◎简  介

  Mike Connors饰演一位中情局捕快,被派至里约热内卢观察好人阿都尼师长,以及其让人不能生育的卫星。而多萝茜·普罗文妮是英国来的特务,希望也能查出个眉目,两人在片中有精采的对手戏,片中美男如云,很有看头。
  1. Video
  2. ID                                       : 1
  3. Format                                   : AVC
  4. Format/Info                              : Advanced Video Codec
  5. Format profile                           : [email protected]
  6. Format settings                          : CABAC / 8 Ref Frames
  7. Format settings, CABAC                   : Yes
  8. Format settings, Reference frames        : 8 frames
  9. Codec ID                                 : V_MPEG4/ISO/AVC
  10. Duration                                 : 1 h 46 min
  11. Bit rate                                 : 5 927 kb/s
  12. Width                                    : 1 280 pixels
  13. Height                                   : 690 pixels
  14. Display aspect ratio                     : 1.85:1
  15. Frame rate mode                          : Constant
  16. Frame rate                               : 24.000 FPS
  17. Color space                              : YUV
  18. Chroma subsampling                       : 4:2:0
  19. Bit depth                                : 8 bits
  20. Scan type                                : Progressive
  21. Bits/(Pixel*Frame)                       : 0.280
  22. Stream size                              : 4.39 GiB (91%)
  23. Writing library                          : x264 core 164 r3094 bfc87b7
  24. Encoding settings                        : cabac=1 / ref=8 / deblock=1:-3:-3 / analyse=0x3:0x133 / me=umh / subme=9 / psy=1 / psy_rd=1.00:0.00 / mixed_ref=1 / me_range=16 / chroma_me=1 / trellis=2 / 8x8dct=1 / cqm=0 / deadzone=21,11 / fast_pskip=0 / chroma_qp_offset=-2 / threads=22 / lookahead_threads=1 / sliced_threads=0 / nr=0 / decimate=1 / interlaced=0 / bluray_compat=0 / constrained_intra=0 / bframes=3 / b_pyramid=2 / b_adapt=2 / b_bias=0 / direct=3 / weightb=1 / open_gop=0 / weightp=2 / keyint=250 / keyint_min=24 / scenecut=40 / intra_refresh=0 / rc_lookahead=60 / rc=crf / mbtree=1 / crf=20.0 / qcomp=0.60 / qpmin=0 / qpmax=69 / qpstep=4 / ip_ratio=1.40 / aq=1:1.00
  25. Language                                 : English
  26. Default                                  : Yes
  27. Forced                                   : No

  28. Audio
  29. ID                                       : 2
  30. Format                                   : FLAC
  31. Format/Info                              : Free Lossless Audio Codec
  32. Codec ID                                 : A_FLAC
  33. Duration                                 : 1 h 46 min
  34. Bit rate mode                            : Variable
  35. Bit rate                                 : 582 kb/s
  36. Channel(s)                               : 2 channels
  37. Channel layout                           : L R
  38. Sampling rate                            : 48.0 kHz
  39. Frame rate                               : 11.719 FPS (4096 SPF)
  40. Bit depth                                : 16 bits
  41. Compression mode                         : Lossless
  42. Stream size                              : 442 MiB (9%)
  43. Writing library                          : libFLAC 1.3.2 (UTC 2017-01-01)
  44. Language                                 : English
  45. Default                                  : Yes
  46. Forced                                   : No

  47. Menu
  48. 00:00:00.000                             : en:Chapter 01
  49. 00:07:48.167                             : en:Chapter 02
  50. 00:18:42.125                             : en:Chapter 03
  51. 00:25:37.458                             : en:Chapter 04
  52. 00:34:41.500                             : en:Chapter 05
  53. 00:44:16.083                             : en:Chapter 06
  54. 00:53:54.000                             : en:Chapter 07
  55. 01:02:10.458                             : en:Chapter 08
  56. 01:09:54.333                             : en:Chapter 09
  57. 01:19:12.750                             : en:Chapter 10
  58. 01:27:49.750                             : en:Chapter 11
  59. 01:36:49.917                             : en:Chapter 12
复制代码





                                       
                                       

                                       
                                       
                                       




回复

使用道具 举报

蓝光币
56
发表于 2022-5-28 23:39:23 | 显示全部楼层
楼主发贴辛苦了,谢谢楼主分享!我觉得蓝光电影网是注册对了!
回复

使用道具 举报

蓝光币
290
发表于 2022-5-29 07:05:51 | 显示全部楼层
楼主发贴辛苦了,谢谢楼主分享!我觉得蓝光电影网是注册对了!
回复

使用道具 举报

蓝光币
237
发表于 2022-5-29 21:51:38 | 显示全部楼层

其实我一直觉得楼主的品味不错!呵呵!蓝光电影网太棒了!
回复

使用道具 举报

懒得打字嘛,点击右侧快捷回复 【右侧内容,后台自定义】
您需要登录后才可以回帖 登录 | 立即加入

本版积分规则

Archiver| |网站地图

Copyright © 2024 Comsenz Inc. Powered by 蓝光电影网

本站内容由用户自主分享和转载自互联网,转载目的在于传递更多信息,并不代表本网赞同其观点和对其真实性负责。

如有侵权、违反国家法律政策行为,请联系我们,我们会第一时间及时清除和处理!

举报反馈邮箱:4k1080.com@gmail.com

快速回复 返回顶部 返回列表