找回密码

蓝光电影网

查看: 121|回复: 0

[剧情] 低俗喜剧[国粤多音轨/简繁英字幕].Dai.juk.hei.kek.AKA.Vulgaria.2012.Bluray.1080p.x265.10bit.DDP.7.1-MiniHD 5.92GB

[复制链接]
蓝光币
8
发表于 2022-7-28 01:51:10 | 显示全部楼层 |阅读模式


◎标  题 低俗笑剧
◎译  名 Vulgaria
◎片  名 低俗喜劇
◎年  代 2012
◎产  地 中国香港
◎类  别 笑剧
◎语  言 汉语普通话 / 粤语
◎上映日期 2012-08-09(中国香港)
◎IMDb评分 6.3/10 (1440人评价)
◎IMDb链接 https://www.imdb.com/title/tt2266938/
◎豆瓣评分 6.4/10 (65151人评价)
◎豆瓣链接 https://movie.douban.com/subject/6869395/
◎片  长 93分钟
◎导  演 彭浩翔 Ho-Cheung Pang
◎编  剧 彭浩翔 Ho-Cheung Pang
       陆以心 Luk Yee Sum
       林超荣 Chiu-Wing Lam
◎演  员 邵音音 Yin-Yin Shaw
       詹瑞文 Sui-man Chim
       叶山豪 Hayama Go
       邹凯光 Matt Chow
       陈静 Dada Chan
       薛凯琪 Fiona Sit
       郑中基 Ronald Cheng
       林雪 Suet Lam
       雷宇扬 Simon Lui
       田蕊妮 Kristal Tin
       杨千嬅 Miriam Yeung
       黄璐 Lu Huang
       陈沛妍 Jacqueline Chan
       麦玲玲 Lingling Mak
       彭秀慧 Kearen Pang
       刘伟恒 Wai-Hang Lau
       周俊伟 Lawrence Chou
       苗可秀 Nora Miao
       谷德昭 Vincent Kok
       郑丹瑞 Lawrence Cheng
◎标  签 彭浩翔 / 香港 / 笑剧 / 杜汶泽 / 香港电影 / 2012 / 搞笑 / 薛凯琪
◎简  介
    电影人杜惠彰(杜汶泽 饰)在某大学讲座时代,应门生之请报告了自己为电影奇迹一次最惨重最不胜回首的牺牲履历:作品不下台面的杜和妻子仳离后不时被追讨供养费,助理刘倩儿(薛凯琪 饰)超级不靠谱搞丢新片企划。落魄之际,好友雷永成(雷宇扬 饰)牵线熟悉广西富二代暴龙哥(郑中基 饰)。面临乖戾变态的暴龙哥,阿杜做出几近让自己大脑断片失忆的惨烈牺牲,总算获得对方投资的许诺,可是他必须请来早已收山明星邵音音(邵音音 饰)拍摄咸湿高文续集。在此以后,他说动邵,又收集男配角叶山豪(叶山豪 饰)、模特徐家欣(陈静 饰)以及导演黑仔达(邹凯光 饰)等人加盟。                                                                      万事俱备,只欠春风,但是状态意外持续不断,杜监制面临从业来最大的危机与应战……
  1. ##### MediaInfo ######
  2. General
  3. Unique ID                                : 155939145947000021967278385848014780293 (0x7550C97D4C5B7606ADC1C7A73346B785)
  4. Complete name                            : Dai.juk.hei.kek.AKA.Vulgaria.2012.Bluray.1080p.x265.10bit.DDP.7.1-MiniHD.mkv
  5. Format                                   : Matroska
  6. Format version                           : Version 4
  7. File size                                : 5.92 GiB
  8. Duration                                 : 1 h 32 min
  9. Overall bit rate                         : 9 122 kb/s
  10. Movie name                               : VULGARIA
  11. Encoded date                             : UTC 2021-02-25 01:34:11
  12. Writing application                      : mkvmerge v53.0.0 ('Fool's Gold') 64-bit
  13. Writing library                          : libebml v1.4.1 + libmatroska v1.6.2
  14. Cover                                    : Yes
  15. Attachments                              : cover.jpg
  16. Video
  17. ID                                       : 1
  18. Format                                   : HEVC
  19. Format/Info                              : High Efficiency Video Coding
  20. Format profile                           : Main [email protected]@High
  21. Codec ID                                 : V_MPEGH/ISO/HEVC
  22. Duration                                 : 1 h 32 min
  23. Bit rate                                 : 6 808 kb/s
  24. Width                                    : 1 920 pixels
  25. Height                                   : 808 pixels
  26. Display aspect ratio                     : 2.40:1
  27. Frame rate mode                          : Constant
  28. Frame rate                               : 24.000 FPS
  29. Color space                              : YUV
  30. Chroma subsampling                       : 4:2:0
  31. Bit depth                                : 10 bits
  32. Bits/(Pixel*Frame)                       : 0.183
  33. Stream size                              : 4.42 GiB (75%)
  34. Writing library                          : x265 3.4+33-606265ac7:[Windows][MSVC 1928][64 bit] 10bit
  35. Encoding settings                        : cpuid=538751111039 / frame-threads=2 / numa-pools=4 / wpp / pmode / no-pme / no-psnr / no-ssim / log-level=2 / input-csp=1 / input-res=1920x808 / interlace=0 / total-frames=133864 / level-idc=0 / high-tier=1 / uhd-bd=0 / ref=4 / no-allow-non-conformance / no-repeat-headers / annexb / no-aud / no-hrd / info / hash=0 / no-temporal-layers / no-open-gop / min-keyint=1 / keyint=250 / gop-lookahead=0 / bframes=6 / b-adapt=2 / b-pyramid / bframe-bias=0 / rc-lookahead=80 / lookahead-slices=0 / NTM4NzU=uuDQuD2mJt9fsCf / scenecut=40 / hist-scenecut=0 / radl=0 / no-splice / no-intra-refresh / ctu=32 / min-cu-size=8 / no-rect / no-amp / max-tu-size=32 / tu-inter-depth=4 / tu-intra-depth=4 / limit-tu=0 / rdoq-level=2 / dynamic-rd=0.00 / no-ssim-rd / signhide / tskip / nr-intra=0 / nr-inter=0 / no-constrained-intra / strong-intra-smoothing / max-merge=5 / limit-refs=0 / no-limit-modes / me=3 / subme=7 / merange=44 / temporal-mvp / no-frame-dup / no-hme / weightp / weightb / no-analyze-src-pics / deblock=-3:-3 / no-sao / no-sao-non-deblock / rd=4 / selective-sao=0 / no-early-skip / no-rskip / no-fast-intra / no-tskip-fast / no-cu-lossless / b-intra / no-splitrd-skip / rdpenalty=0 / psy-rd=1.50 / psy-rdoq=1.00 / no-rd-refine / no-lossless / cbqpoffs=-2 / crqpoffs=-2 / rc=crf / crf=20.0 / qcomp=0.65 / qpstep=4 / stats-write=0 / stats-read=0 / vbv-maxrate=160000 / vbv-bufsize=160000 / vbv-init=0.9 / min-vbv-fullness=50.0 / max-vbv-fullness=80.0 / crf-max=0.0 / crf-min=0.0 / ipratio=1.30 / pbratio=1.20 / aq-mode=1 / aq-strength=1.00 / no-cutree / zone-count=0 / no-strict-cbr / qg-size=8 / no-rc-grain / qpmax=69 / qpmin=0 / no-const-vbv / sar=0 / overscan=0 / videoformat=5 / range=0 / colorprim=1 / transfer=1 / colormatrix=1 / chromaloc=0 / display-window=0 / cll=0,0 / min-luma=0 / max-luma=1023 / log2-max-poc-lsb=8 / vui-timing-info / vui-hrd-info / slices=1 / no-opt-qp-pps / no-opt-ref-list-length-pps / no-multi-pass-opt-rps / scenecut-bias=0.05 / hist-threshold=0.03 / no-opt-cu-delta-qp / no-aq-motion / no-hdr10 / no-hdr10-opt / no-dhdr10-opt / no-idr-recovery-sei / analysis-reuse-level=0 / analysis-save-reuse-level=0 / analysis-load-reuse-level=0 / scale-factor=0 / refine-intra=0 / refine-inter=0 / refine-mv=1 / refine-ctu-distortion=0 / no-limit-sao / ctu-info=0 / no-lowpass-dct / refine-analysis-type=0 / copy-pic=1 / max-ausize-factor=1.0 / no-dynamic-refine / no-single-sei / no-hevc-aq / no-svt / no-field / qp-adaptation-range=1.00 / scenecut-aware-qp=0conformance-window-offsets / right=0 / bottom=0 / NTM4NzU= / decoder-max-rate=0 / no-vbv-live-multi-pass
  36. Default                                  : Yes
  37. Forced                                   : No
  38. Color range                              : Limited
  39. Color primaries                          : BT.709
  40. Transfer characteristics                 : BT.709
  41. Matrix coefficients                      : BT.709
  42. Audio #1
  43. ID                                       : 2
  44. Format                                   : E-AC-3
  45. Format/Info                              : Enhanced AC-3
  46. Commercial name                          : Dolby Digital Plus
  47. Format profile                           : Blu-ray Disc
  48. Codec ID                                 : A_EAC3
  49. Duration                                 : 1 h 32 min
  50. Bit rate mode                            : Constant
  51. Bit rate                                 : 1 536 kb/s
  52. Channel(s)                               : 8 channels
  53. Channel layout                           : L R C LFE Ls Rs Lb Rb
  54. Sampling rate                            : 48.0 kHz
  55. Frame rate                               : 31.250 FPS (1536 SPF)
  56. Compression mode                         : Lossy
  57. Stream size                              : 1 021 MiB (17%)
  58. Title                                    : Mandarin
  59. Language                                 : Chinese
  60. Service kind                             : Complete Main
  61. Default                                  : Yes
  62. Forced                                   : No
  63. Audio #2
  64. ID                                       : 3
  65. ID in the original source medium         : 4354 (0x1102)
  66. Format                                   : AC-3
  67. Format/Info                              : Audio Coding 3
  68. Commercial name                          : Dolby Digital
  69. Codec ID                                 : A_AC3
  70. Duration                                 : 1 h 32 min
  71. Bit rate mode                            : Constant
  72. Bit rate                                 : 640 kb/s
  73. Channel(s)                               : 6 channels
  74. Channel layout                           : L R C LFE Ls Rs
  75. Sampling rate                            : 48.0 kHz
  76. Frame rate                               : 31.250 FPS (1536 SPF)
  77. Compression mode                         : Lossy
  78. Stream size                              : 425 MiB (7%)
  79. Title                                    : Cantonese
  80. Language                                 : Chinese
  81. Service kind                             : Complete Main
  82. Default                                  : No
  83. Forced                                   : No
  84. Original source medium                   : Blu-ray
  85. Audio #3
  86. ID                                       : 4
  87. Format                                   : Opus
  88. Codec ID                                 : A_OPUS
  89. Duration                                 : 1 h 32 min
  90. Bit rate                                 : 67.2 kb/s
  91. Channel(s)                               : 2 channels
  92. Channel layout                           : L R
  93. Sampling rate                            : 48.0 kHz
  94. Frame rate                               : 50.000 FPS (960 SPF)
  95. Compression mode                         : Lossy
  96. Stream size                              : 44.6 MiB (1%)
  97. Title                                    : Commentary
  98. Writing library                          : opusenc from opus-tools 0.2-3-gf5f571b
  99. Language                                 : Chinese
  100. Default                                  : No
  101. Forced                                   : No
  102. ENCODER_OPTIONS                          : --bitrate 80
  103. Text #1
  104. ID                                       : 5
  105. ID in the original source medium         : 4608 (0x1200)
  106. Format                                   : PGS
  107. Muxing mode                              : zlib
  108. Codec ID                                 : S_HDMV/PGS
  109. Codec ID/Info                            : Picture based subtitle format used on BDs/HD-DVDs
  110. Duration                                 : 1 h 28 min
  111. Bit rate                                 : 51.3 kb/s
  112. Count of elements                        : 3441
  113. Stream size                              : 32.5 MiB (1%)
  114. Title                                    : CHT
  115. Language                                 : Chinese
  116. Default                                  : No
  117. Forced                                   : No
  118. Original source medium                   : Blu-ray
  119. Text #2
  120. ID                                       : 6
  121. ID in the original source medium         : 4609 (0x1201)
  122. Format                                   : PGS
  123. Muxing mode                              : zlib
  124. Codec ID                                 : S_HDMV/PGS
  125. Codec ID/Info                            : Picture based subtitle format used on BDs/HD-DVDs
  126. Duration                                 : 1 h 28 min
  127. Bit rate                                 : 50.6 kb/s
  128. Count of elements                        : 3441
  129. Stream size                              : 32.1 MiB (1%)
  130. Title                                    : CHS
  131. Language                                 : Chinese
  132. Default                                  : Yes
  133. Forced                                   : No
  134. Original source medium                   : Blu-ray
  135. Text #3
  136. ID                                       : 7
  137. ID in the original source medium         : 4610 (0x1202)
  138. Format                                   : PGS
  139. Muxing mode                              : zlib
  140. Codec ID                                 : S_HDMV/PGS
  141. Codec ID/Info                            : Picture based subtitle format used on BDs/HD-DVDs
  142. Duration                                 : 1 h 28 min
  143. Bit rate                                 : 66.7 kb/s
  144. Count of elements                        : 3441
  145. Stream size                              : 42.3 MiB (1%)
  146. Language                                 : English
  147. Default                                  : No
  148. Forced                                   : No
  149. Original source medium                   : Blu-ray
  150. Menu
  151. 00:00:00.000                             : en:Chapter 01
  152. 00:08:54.791                             : en:Chapter 02
  153. 00:13:57.208                             : en:Chapter 03
  154. 00:24:42.541                             : en:Chapter 04
  155. 00:31:44.916                             : en:Chapter 05
  156. 00:38:06.250                             : en:Chapter 06
  157. 00:42:40.333                             : en:Chapter 07
  158. 00:51:54.000                             : en:Chapter 08
  159. 01:00:01.500                             : en:Chapter 09
  160. 01:06:05.416                             : en:Chapter 10
  161. 01:12:32.583                             : en:Chapter 11
  162. 01:20:20.958                             : en:Chapter 12
复制代码



保举请利用qBittorrent,utorrent,transmission等标准BT软件下载!以获得最快速度。奉求保种!





回复

使用道具 举报

懒得打字嘛,点击右侧快捷回复 【右侧内容,后台自定义】
您需要登录后才可以回帖 登录 | 立即加入

本版积分规则

Archiver|小黑屋| 蓝光电影网 |网站地图

Copyright © 2021 Comsenz Inc. Powered by 蓝光电影网

蓝光电影网

本站内容由用户自主分享和转载自互联网,转载目的在于传递更多信息,并不代表本网赞同其观点和对其真实性负责。

如有侵权、违反国家法律政策行为,请联系我们,我们会第一时间及时清除和处理!

举报反馈邮箱:[email protected]

快速回复 返回顶部 返回列表