找回密码

蓝光电影网

查看: 78|回复: 1

[2160p] 不好 Not.Okay.2022.2160p.HULU.2160p.WEB-DL.x265.10bit.SDR.DD5.1-CM 11.22GB

[复制链接]
蓝光币
886
发表于 2022-7-29 13:39:15 | 显示全部楼层 |阅读模式


◎标  题 欠好
◎译  名 不OK
◎片  名 Not Okay
◎年  代 2022
◎产  地 美国
◎类  别 剧情 / 笑剧
◎语  言 英语
◎上映日期 2022-07-29(美国收集)
◎IMDb链接 https://www.imdb.com/title/tt14814040/
◎豆瓣链接 https://movie.douban.com/subject/35552062/
◎片  长 100分钟
◎导  演 奎恩·谢法德 Quinn Shephard
◎编  剧 奎恩·谢法德 Quinn Shephard
◎演  员 佐伊·达奇 Zoey Deutch
       迪伦·奥布莱恩 Dylan O'Brien
       艾伯丝·戴维兹 Embeth Davidtz
       布雷南·布朗 Brennan Brown
       卡兰·索尼 Karan Soni
       米娅·伊萨克 Mia Isaac
       莎拉·亚金 Sarah Yarkin
       纳迪娅·亚历山大 Nadia Alexander
       布莱斯·科里根 Blaise Corrigan
       洛根·克劳福德 Logan Crawford
       Kapil Bawa Kapil Bawa
       Kirk White Kirk White
◎简  介

  报告一个误入邪路的年轻女子渴望朋友和名声,她伪装去巴黎观光,以提升自己在交际媒体上的形象。当现实天下忽然发生了一个可怕的事务、成为她设想观光的一部分,她好心的假话成为了道德窘境,赐与她想要的一切关注。
  1. Video
  2. ID                                       : 1
  3. Format                                   : HEVC
  4. Format/Info                              : High Efficiency Video Coding
  5. Format profile                           : Main [email protected]@Main
  6. Codec ID                                 : V_MPEGH/ISO/HEVC
  7. Duration                                 : 1 h 42 min
  8. Bit rate                                 : 15.4 Mb/s
  9. Width                                    : 3 840 pixels
  10. Height                                   : 2 160 pixels
  11. Display aspect ratio                     : 16:9
  12. Frame rate mode                          : Constant
  13. Frame rate                               : 24.000 FPS
  14. Color space                              : YUV
  15. Chroma subsampling                       : 4:2:0
  16. Bit depth                                : 10 bits
  17. Bits/(Pixel*Frame)                       : 0.077
  18. Stream size                              : 11.0 GiB (98%)
  19. Language                                 : English
  20. Default                                  : Yes
  21. Forced                                   : No

  22. Audio
  23. ID                                       : 2
  24. Format                                   : E-AC-3
  25. Format/Info                              : Enhanced AC-3
  26. Commercial name                          : Dolby Digital Plus
  27. Codec ID                                 : A_EAC3
  28. Duration                                 : 1 h 42 min
  29. Bit rate mode                            : Constant
  30. Bit rate                                 : 256 kb/s
  31. Channel(s)                               : 6 channels
  32. Channel layout                           : L R C LFE Ls Rs
  33. Sampling rate                            : 48.0 kHz
  34. Frame rate                               : 31.250 FPS (1536 SPF)
  35. Compression mode                         : Lossy
  36. Stream size                              : 188 MiB (2%)
  37. Language                                 : English
  38. Service kind                             : Complete Main
  39. Default                                  : Yes
  40. Forced                                   : No

  41. Text #1
  42. ID                                       : 3
  43. Format                                   : UTF-8
  44. Codec ID                                 : S_TEXT/UTF8
  45. Codec ID/Info                            : UTF-8 Plain Text
  46. Duration                                 : 1 h 41 min
  47. Bit rate                                 : 73 b/s
  48. Frame rate                               : 0.263 FPS
  49. Count of elements                        : 1600
  50. Stream size                              : 55.0 KiB (0%)
  51. Title                                    : SDH
  52. Language                                 : English
  53. Default                                  : No
  54. Forced                                   : No

  55. Text #2
  56. ID                                       : 4
  57. Format                                   : UTF-8
  58. Codec ID                                 : S_TEXT/UTF8
  59. Codec ID/Info                            : UTF-8 Plain Text
  60. Duration                                 : 1 h 41 min
  61. Bit rate                                 : 69 b/s
  62. Frame rate                               : 0.247 FPS
  63. Count of elements                        : 1502
  64. Stream size                              : 51.4 KiB (0%)
  65. Language                                 : English
  66. Default                                  : No
  67. Forced                                   : No

  68. Text #3
  69. ID                                       : 5
  70. Format                                   : UTF-8
  71. Codec ID                                 : S_TEXT/UTF8
  72. Codec ID/Info                            : UTF-8 Plain Text
  73. Duration                                 : 1 h 42 min
  74. Bit rate                                 : 70 b/s
  75. Frame rate                               : 0.263 FPS
  76. Count of elements                        : 1609
  77. Stream size                              : 52.3 KiB (0%)
  78. Title                                    : SDH
  79. Language                                 : Spanish
  80. Default                                  : No
  81. Forced                                   : No

  82. Text #4
  83. ID                                       : 6
  84. Format                                   : UTF-8
  85. Codec ID                                 : S_TEXT/UTF8
  86. Codec ID/Info                            : UTF-8 Plain Text
  87. Duration                                 : 1 h 42 min
  88. Bit rate                                 : 65 b/s
  89. Frame rate                               : 0.247 FPS
  90. Count of elements                        : 1510
  91. Stream size                              : 48.6 KiB (0%)
  92. Language                                 : Spanish
  93. Default                                  : No
  94. Forced                                   : No

  95. Menu
  96. 00:00:00.000                             : Chapter 01
  97. 01:39:13.200                             : Credits
复制代码




                                       
                                       

                                       
                                       
                                       




回复

使用道具 举报

蓝光币
333
发表于 2022-7-29 15:51:42 | 显示全部楼层

楼主太厉害了!楼主,电影应该很好看我觉得蓝光电影网真是个好地方!
回复 支持 反对

使用道具 举报

懒得打字嘛,点击右侧快捷回复 【右侧内容,后台自定义】
您需要登录后才可以回帖 登录 | 立即加入

本版积分规则

Archiver|小黑屋| 蓝光电影网 |网站地图

Copyright © 2021 Comsenz Inc. Powered by 蓝光电影网

蓝光电影网

本站内容由用户自主分享和转载自互联网,转载目的在于传递更多信息,并不代表本网赞同其观点和对其真实性负责。

如有侵权、违反国家法律政策行为,请联系我们,我们会第一时间及时清除和处理!

举报反馈邮箱:[email protected]

快速回复 返回顶部 返回列表