找回密码

蓝光电影网

查看: 133|回复: 5

[剧情] 罗生门 Rashomon.1950.iNTERNAL.720p.BluRay.x264-YAMG 5.46GB

[复制链接]
蓝光币
1020
发表于 2022-8-1 09:04:32 | 显示全部楼层 |阅读模式


◎译  名 罗生门 / Rashomon
◎片  名 羅生門
◎年  代 1950
◎产  地 日本
◎类  别 剧情 / 悬疑 / 犯罪
◎语  言 日语
◎上映日期 1950-08-26(日本)
◎IMDb链接 https://www.imdb.com/title/tt0042876/
◎豆瓣评分 8.8/10 (288840人评价)
◎豆瓣链接 https://movie.douban.com/subject/1291879/
◎片  长 88分钟
◎导  演 黑泽明 Akira Kurosawa (id:1054529)
◎编  剧 黑泽明 Akira Kurosawa (id:1054529)
       桥本忍 Shinobu Hashimoto (id:1094656)
       芥川龙之介 Ryunosuke Akutagawa (id:1033445)
◎演  员 三船敏郎 Toshir? Mifune (id:1056027)
       京町子 Machiko Ky? (id:1000844)
       森雅之 Masayuki Mori (id:1014668)
       志村乔 Takashi Shimura (id:1032411)
       千秋实 Minoru Chiaki (id:1023321)
       上田吉二郎 Kichijir? Ueda (id:1156385)
       本间文子 Noriko Honma (id:1037962)
       加东大介 Daisuke Kat? (id:1008093)
       早坂文雄 Fumio Hayasaka (id:1025658)
       宫川一夫 Kazuo Miyagawa (id:1033826)
       黑泽明 Akira Kurosawa (id:1054529)
       松本春造 H. Motsumoto (id:1292623)
       加藤泰 Kato Tai (id:1274918)
◎简  介

  罗生门,日本京都的正南门。云游僧人、砍柴人和乞丐在城门底下避雨,三人闲谈,话题起头,故事的序幕拉开:一个军人和他妻子途经荒山,遭受了意外。妻子被欺侮,而军人惨遭杀戮。惨案若何酿成?凶手、妻子、借军人亡魂来做证的女巫,都各有说法。                                    
                                真相只得一个,可是大家供给证词的目标却各有分歧。为了美化自己的道德,减轻自己的罪行,粉饰自己的过失,大家都起头论述一个美化自己的故事版本。荒山上的惨案,成了一团拨不开看不清的迷雾。                                    
                                议论终了,雨过晴和。砍柴人在罗生门旁发现一个抽泣的弃婴。他决议收养下来,抱着婴孩往落日深处走去。
◎获奖情况 (共2项)
  第25届奥斯卡金像奖 (1953)
  黑白片最好艺术指导和布景(提名)
  第12届威尼斯电影节 (1951)
  主比赛单元 金狮奖
   └──黑泽明 (id:1054529)
  1. Video
  2. ID                                       : 1
  3. Format                                   : AVC
  4. Format/Info                              : Advanced Video Codec
  5. Format profile                           : [email protected]
  6. Format settings                          : CABAC / 11 Ref Frames
  7. Format settings, CABAC                   : Yes
  8. Format settings, Reference frames        : 11 frames
  9. Codec ID                                 : V_MPEG4/ISO/AVC
  10. Duration                                 : 1 h 28 min
  11. Bit rate                                 : 8 045 kb/s
  12. Width                                    : 986 pixels
  13. Height                                   : 720 pixels
  14. Display aspect ratio                     : 4:3
  15. Frame rate mode                          : Constant
  16. Frame rate                               : 23.976 (24000/1001/189150) FPS
  17. Color space                              : YUV
  18. Chroma subsampling                       : 4:2:0
  19. Bit depth                                : 8 bits
  20. Scan type                                : Progressive
  21. Bits/(Pixel*Frame)                       : 0.473
  22. Stream size                              : 4.98 GiB (91%)
  23. Writing library                          : x264 core 164 r3075 66a5bc1
  24. Encoding settings                        : cabac=1 / ref=11 / deblock=1:-3:-3 / analyse=0x3:0x133 / me=umh / subme=10 / psy=1 / psy_rd=1.00:0.00 / mixed_ref=1 / me_range=32 / chroma_me=1 / trellis=2 / 8x8dct=1 / cqm=0 / deadzone=21,11 / fast_pskip=0 / chroma_qp_offset=-2 / threads=22 / lookahead_threads=3 / sliced_threads=0 / nr=0 / decimate=0 / interlaced=0 / bluray_compat=0 / constrained_intra=0 / bframes=8 / b_pyramid=2 / b_adapt=2 / b_bias=0 / direct=3 / weightb=1 / open_gop=0 / weightp=2 / keyint=250 / keyint_min=23 / scenecut=40 / intra_refresh=0 / rc=crf / mbtree=0 / crf=17.0 / qcomp=0.60 / qpmin=0 / qpmax=69 / qpstep=4 / ip_ratio=1.40 / pb_ratio=1.30 / aq=3:0.60
  25. Language                                 : English
  26. Default                                  : Yes
  27. Forced                                   : No
  28. Color range                              : Limited
  29. Matrix coefficients                      : BT.709

  30. Audio #1
  31. ID                                       : 2
  32. Format                                   : FLAC
  33. Format/Info                              : Free Lossless Audio Codec
  34. Codec ID                                 : A_FLAC
  35. Duration                                 : 1 h 28 min
  36. Bit rate mode                            : Variable
  37. Bit rate                                 : 495 kb/s
  38. Channel(s)                               : 1 channel
  39. Channel layout                           : C
  40. Sampling rate                            : 48.0 kHz
  41. Frame rate                               : 11.719 FPS (4096 SPF)
  42. Bit depth                                : 24 bits
  43. Compression mode                         : Lossless
  44. Stream size                              : 314 MiB (6%)
  45. Title                                    : Japanese
  46. Writing library                          : libFLAC 1.3.3 (UTC 2019-08-04)
  47. Language                                 : Japanese
  48. Default                                  : Yes
  49. Forced                                   : No

  50. Audio #2
  51. ID                                       : 3
  52. Format                                   : AC-3
  53. Format/Info                              : Audio Coding 3
  54. Commercial name                          : Dolby Digital
  55. Codec ID                                 : A_AC3
  56. Duration                                 : 1 h 28 min
  57. Bit rate mode                            : Constant
  58. Bit rate                                 : 192 kb/s
  59. Channel(s)                               : 1 channel
  60. Channel layout                           : C
  61. Sampling rate                            : 48.0 kHz
  62. Frame rate                               : 31.250 FPS (1536 SPF)
  63. Compression mode                         : Lossy
  64. Stream size                              : 122 MiB (2%)
  65. Title                                    : English
  66. Language                                 : English
  67. Service kind                             : Complete Main
  68. Default                                  : No
  69. Forced                                   : No

  70. Audio #3
  71. ID                                       : 4
  72. Format                                   : AAC LC
  73. Format/Info                              : Advanced Audio Codec Low Complexity
  74. Codec ID                                 : A_AAC-2
  75. Duration                                 : 1 h 28 min
  76. Bit rate                                 : 86.7 kb/s
  77. Channel(s)                               : 2 channels
  78. Channel layout                           : L R
  79. Sampling rate                            : 48.0 kHz
  80. Frame rate                               : 46.875 FPS (1024 SPF)
  81. Compression mode                         : Lossy
  82. Delay relative to video                  : 20 ms
  83. Stream size                              : 55.0 MiB (1%)
  84. Title                                    : Commentary by Critic and Historian Donald Richie
  85. Language                                 : English
  86. Default                                  : No
  87. Forced                                   : No

  88. Text #1
  89. ID                                       : 5
  90. Format                                   : UTF-8
  91. Codec ID                                 : S_TEXT/UTF8
  92. Codec ID/Info                            : UTF-8 Plain Text
  93. Duration                                 : 1 h 27 min
  94. Bit rate                                 : 22 b/s
  95. Count of elements                        : 449
  96. Stream size                              : 14.1 KiB (0%)
  97. Title                                    : English Forced
  98. Language                                 : English
  99. Default                                  : Yes
  100. Forced                                   : Yes

  101. Text #2
  102. ID                                       : 6
  103. Format                                   : PGS
  104. Muxing mode                              : zlib
  105. Codec ID                                 : S_HDMV/PGS
  106. Codec ID/Info                            : Picture based subtitle format used on BDs/HD-DVDs
  107. Duration                                 : 1 h 27 min
  108. Bit rate                                 : 18.9 kb/s
  109. Count of elements                        : 898
  110. Stream size                              : 11.8 MiB (0%)
  111. Title                                    : English Forced PGS
  112. Language                                 : English
  113. Default                                  : No
  114. Forced                                   : No

  115. Menu
  116. 00:00:00.000                             : en:Chapter 01
  117. 00:08:25.755                             : en:Chapter 02
  118. 00:12:17.612                             : en:Chapter 03
  119. 00:16:19.312                             : en:Chapter 04
  120. 00:37:17.986                             : en:Chapter 05
  121. 00:39:42.130                             : en:Chapter 06
  122. 00:49:38.809                             : en:Chapter 07
  123. 00:51:35.676                             : en:Chapter 08
  124. 01:01:56.713                             : en:Chapter 09
  125. 01:04:41.086                             : en:Chapter 10
  126. 01:19:20.214                             : en:Chapter 11
  127. 01:24:27.437                             : en:Chapter 12
复制代码




                                       
                                       

                                       
                                       
                                       




回复

使用道具 举报

蓝光币
10
发表于 2022-8-1 22:41:42 | 显示全部楼层
感谢分享
回复

使用道具 举报

蓝光币
277
发表于 2022-8-5 15:01:52 | 显示全部楼层
楼主发贴辛苦了,谢谢楼主分享!我觉得蓝光电影网是注册对了!
回复 支持 反对

使用道具 举报

蓝光币
128
发表于 2022-8-7 15:04:10 来自手机 | 显示全部楼层
谢谢分享
回复

使用道具 举报

蓝光币
1
发表于 2022-8-7 20:02:52 | 显示全部楼层
楼主发贴辛苦了,谢谢楼主分享!我觉得蓝光电影网是注册对了!
回复 支持 反对

使用道具 举报

蓝光币
1
发表于 2022-8-7 20:04:29 | 显示全部楼层
楼主发贴辛苦了,谢谢楼主分享!
回复 支持 反对

使用道具 举报

懒得打字嘛,点击右侧快捷回复 【右侧内容,后台自定义】
您需要登录后才可以回帖 登录 | 立即加入

本版积分规则

Archiver|小黑屋| 蓝光电影网 |网站地图

Copyright © 2021 Comsenz Inc. Powered by 蓝光电影网

蓝光电影网

本站内容由用户自主分享和转载自互联网,转载目的在于传递更多信息,并不代表本网赞同其观点和对其真实性负责。

如有侵权、违反国家法律政策行为,请联系我们,我们会第一时间及时清除和处理!

举报反馈邮箱:[email protected]

快速回复 返回顶部 返回列表