找回密码

蓝光电影网

查看: 162|回复: 1

[剧情] 红字 The.Scarlet.Letter.1995.1080p.BluRay.x264.DTS-HD.MA.5.1-NOGRP 20.56GB

[复制链接]
蓝光币
1022
发表于 2022-8-1 17:30:12 | 显示全部楼层 |阅读模式


◎标  题 红字
◎译  名 红色禁恋
◎片  名 The Scarlet Letter
◎年  代 1995
◎产  地 美国
◎类  别 剧情 / 恋爱
◎语  言 英语
◎上映日期 1995-10-13(美国)
◎IMDb评分 5.3/10 (15322人评价)
◎IMDb链接 https://www.imdb.com/title/tt0114345/
◎豆瓣评分 7.4/10 (6369人评价)
◎豆瓣链接 https://movie.douban.com/subject/1301536/
◎片  长 135 分钟
◎导  演 罗兰·约菲 Roland Joffé
◎编  剧 纳撒尼尔·霍桑 Nathaniel Hawthorne
       道格拉斯·戴·斯图尔特 Douglas Day Stewart
◎演  员 黛米·摩尔 Demi Moore
       加里·奥德曼 Gary Oldman
       罗伯特·杜瓦尔 Robert Duvall
       Kristin Fairlie Kristin Fairlie
       罗伊·多特里斯 Roy Dotrice
       George Aguilar George Aguilar
       Scout LaRue Willis Scout LaRue Willis
       埃里克·施维克 Eric Schweig
       爱德华·哈德威克 Edward Hardwicke
       丹娜·爱薇 Dana Ivey
       罗伯特·普罗斯基 Robert Prosky
       琼·普莱怀特 Joan Plowright
       乔迪·梅 Jodhi May
       黛安·萨林格 Diane Salinger
       马尔科姆·斯托里 Malcolm Storry
       蒂姆·伍德沃德 Tim Woodward
       艾米·莱特 Amy Wright
       Tallulah Belle Willis Tallulah Belle Willis
       Jonathan Cornick Jonathan Cornick
       罗兰·约菲 Roland Joffé
       Dodi Fayed Dodi Fayed
       罗伯特F. 科尔斯贝利 Robert F. Colesberry
       Tova Laiter Tova Laiter
       安德鲁·G·瓦吉纳 Andrew G. Vajna
       约翰·巴里 John Barry
       亚历克斯·汤姆森 Alex Thomson
       汤姆·诺伯 Thom Noble
       Elisabeth Leustig Elisabeth Leustig
       罗伊·沃克 Roy Walker
       Tony Woollard Tony Woollard
       罗莎琳德·欣格尔顿 Rosalind Shingleton
       约瑟夫·穆索 Joseph Musso
       加布里埃尔·佩斯卡西 Gabriella Pescucci
       法布里齐奥·斯福尔扎 Fabrizio Sforza
       Serge Morache Serge Morache
       Jennifer Bower O'Halloran Jennifer Bower O'Halloran
       Stephen Bélanger Stephen Bélanger
       Jonathan Wright Jonathan Wright
       拉斯·P·温特 Lars P. Winther
       巴迪·乔·胡克 Buddy Joe Hooker
       Dennis Maguire Dennis Maguire
◎简  介

  故事发生在17世纪。赫丝特(黛米·摩尔 Demi Moore 饰)分开丈夫,孤身一人来到马萨诸塞湾的英属殖民地假寓。在这里开辟的英国人信仰果断,固守清规,赫丝特的一些行为在这压制的殖民地情况下很是引人注视。当地的牧师阿瑟(加里·奥德曼 Gary Oldman 饰)英俊而富有豪情,赫丝特为他的神彩深深吸引,两本性情相投的人很快堕入了危险的热恋。未几殖民地方面接到了赫丝特的医生丈夫被印第安人杀戮的消息,本以为可以公然关系的一对情人等到的却是东窗事发,赫丝特为庇护阿瑟,拒绝供认通奸者,自此被投入牢狱直至产下一位女婴,而阿瑟则在牢狱外日日承受心灵的拷问……出狱后的赫丝特戴上了通奸者的羞辱标志,同时她浩劫不死的丈夫忽然现身,誓要将通奸者揪出以宣泄心中怒火……
  1. Video
  2. ID                                       : 1
  3. Format                                   : AVC
  4. Format/Info                              : Advanced Video Codec
  5. Format profile                           : [email protected]
  6. Format settings                          : CABAC / 5 Ref Frames
  7. Format settings, CABAC                   : Yes
  8. Format settings, Reference frames        : 5 frames
  9. Codec ID                                 : V_MPEG4/ISO/AVC
  10. Duration                                 : 2 h 15 min
  11. Bit rate                                 : 19.7 Mb/s
  12. Width                                    : 1 920 pixels
  13. Height                                   : 816 pixels
  14. Display aspect ratio                     : 2.35:1
  15. Frame rate mode                          : Constant
  16. Frame rate                               : 23.976 (24000/1001/189150) FPS
  17. Color space                              : YUV
  18. Chroma subsampling                       : 4:2:0
  19. Bit depth                                : 8 bits
  20. Scan type                                : Progressive
  21. Bits/(Pixel*Frame)                       : 0.523
  22. Stream size                              : 18.6 GiB (91%)
  23. Writing library                          : x264 core 164 r3094 bfc87b7
  24. Encoding settings                        : cabac=1 / ref=5 / deblock=1:-3:-3 / analyse=0x3:0x133 / me=umh / subme=10 / psy=1 / psy_rd=1.00:0.00 / mixed_ref=1 / me_range=32 / chroma_me=1 / trellis=2 / 8x8dct=1 / cqm=0 / deadzone=21,11 / fast_pskip=0 / chroma_qp_offset=-2 / threads=24 / lookahead_threads=4 / sliced_threads=0 / nr=0 / decimate=0 / interlaced=0 / bluray_compat=0 / constrained_intra=0 / bframes=8 / b_pyramid=2 / b_adapt=2 / b_bias=0 / direct=3 / weightb=1 / open_gop=0 / weightp=2 / keyint=250 / keyint_min=23 / scenecut=40 / intra_refresh=0 / rc=crf / mbtree=0 / crf=17.0 / qcomp=0.60 / qpmin=0 / qpmax=69 / qpstep=4 / ip_ratio=1.40 / pb_ratio=1.30 / aq=3:0.60
  25. Language                                 : English
  26. Default                                  : Yes
  27. Forced                                   : No
  28. Color range                              : Limited
  29. Matrix coefficients                      : BT.709
  30. Audio
  31. ID                                       : 2
  32. Format                                   : DTS XLL
  33. Format/Info                              : Digital Theater Systems
  34. Commercial name                          : DTS-HD Master Audio
  35. Codec ID                                 : A_DTS
  36. Duration                                 : 2 h 15 min
  37. Bit rate mode                            : Variable
  38. Bit rate                                 : 2 051 kb/s
  39. Channel(s)                               : 6 channels
  40. Channel layout                           : C L R Ls Rs LFE
  41. Sampling rate                            : 48.0 kHz
  42. Frame rate                               : 93.750 FPS (512 SPF)
  43. Bit depth                                : 16 bits
  44. Compression mode                         : Lossless
  45. Delay relative to video                  : 11 s 0 ms
  46. Stream size                              : 1.94 GiB (9%)
  47. Title                                    : English
  48. Language                                 : English
  49. Default                                  : Yes
  50. Forced                                   : No
  51. Text #1
  52. ID                                       : 3
  53. Format                                   : UTF-8
  54. Codec ID                                 : S_TEXT/UTF8
  55. Codec ID/Info                            : UTF-8 Plain Text
  56. Duration                                 : 2 h 8 min
  57. Bit rate                                 : 49 b/s
  58. Frame rate                               : 0.177 FPS
  59. Count of elements                        : 1364
  60. Stream size                              : 46.9 KiB (0%)
  61. Title                                    : English
  62. Language                                 : English
  63. Default                                  : Yes
  64. Forced                                   : No
  65. Text #2
  66. ID                                       : 4
  67. Format                                   : PGS
  68. Muxing mode                              : zlib
  69. Codec ID                                 : S_HDMV/PGS
  70. Codec ID/Info                            : Picture based subtitle format used on BDs/HD-DVDs
  71. Duration                                 : 2 h 8 min
  72. Bit rate                                 : 23.1 kb/s
  73. Frame rate                               : 0.351 FPS
  74. Count of elements                        : 2706
  75. Stream size                              : 21.3 MiB (0%)
  76. Title                                    : English PGS
  77. Language                                 : English
  78. Default                                  : No
  79. Forced                                   : No
  80. Menu
  81. 00:00:00.000                             : :Chapter 01
  82. 00:09:05.670                             : :Chapter 02
  83. 00:24:44.733                             : :Chapter 03
  84. 00:43:26.604                             : :Chapter 04
  85. 01:01:29.352                             : :Chapter 05
  86. 01:23:42.935                             : :Chapter 06
  87. 01:36:51.305                             : :Chapter 07
  88. 01:53:36.059                             : :Chapter 08
复制代码







                                       
                                       

                                       
                                       
                                       




回复

使用道具 举报

蓝光币
72
发表于 2022-8-1 21:24:22 | 显示全部楼层
楼主辛苦了
回复 支持 反对

使用道具 举报

懒得打字嘛,点击右侧快捷回复 【右侧内容,后台自定义】
您需要登录后才可以回帖 登录 | 立即加入

本版积分规则

Archiver|小黑屋| 蓝光电影网 |网站地图

Copyright © 2021 Comsenz Inc. Powered by 蓝光电影网

蓝光电影网

本站内容由用户自主分享和转载自互联网,转载目的在于传递更多信息,并不代表本网赞同其观点和对其真实性负责。

如有侵权、违反国家法律政策行为,请联系我们,我们会第一时间及时清除和处理!

举报反馈邮箱:[email protected]

快速回复 返回顶部 返回列表