找回密码

蓝光电影网

查看: 99|回复: 1

[2160p] 48小时 48.Hrs.1982.2160p.WEB-DL.DTS-HD.MA.TrueHD.5.1.DV.MKV.x265-DVSUX 21.96GB

[复制链接]
蓝光币
894
发表于 2022-8-6 11:13:13 | 显示全部楼层 |阅读模式


◎标  题 48小时
◎译  名 特赦48小时 / 四十八小时
◎片  名 48 Hrs.
◎年  代 1982
◎产  地 美国
◎类  别 剧情 / 笑剧 / 行动 / 惊悚 / 犯罪
◎语  言 英语
◎上映日期 1982-12-08(美国)
◎IMDb评分 6.9/10 (74979人评价)
◎IMDb链接 https://www.imdb.com/title/tt0083511/
◎豆瓣评分 6.5/10 (387人评价)
◎豆瓣链接 https://movie.douban.com/subject/1301780/
◎片  长 96 分钟
◎导  演 沃尔特·希尔 Walter Hill
◎编  剧 罗杰·斯波蒂斯伍德 Roger Spottiswoode
       沃尔特·希尔 Walter Hill
       拉里·格罗斯 Larry Gross
       斯蒂芬·E.德·索萨 Steven E. de Souza
◎演  员 尼克·诺特 Nick Nolte
       艾迪·墨菲 Eddie Murphy
       安妮特·奥图 Annette O'Toole
       弗兰克·麦克雷 Frank McRae
       詹姆斯·瑞马尔 James Remar
       大卫·帕特里克·凯利 David Patrick Kelly
       索尼·兰哈姆 Sonny Landham
       布里翁·詹姆斯 Brion James
       Kerry Sherman Kerry Sherman
       乔纳森·班克斯 Jonathan Banks
       詹姆斯·基恩 James Keane
       Margot Rose Margot Rose
       丹尼斯·克罗斯比 Denise Crosby
       Olivia Brown Olivia Brown
       Todd Allen Todd Allen
       Bill Dearth Bill Dearth
       内德·道德 Ned Dowd
       吉姆·海尼 Jim Haynie
       杰克·唐蒂博 Jack Thibeau
       桑迪·马丁 Sandy Martin
       Matt Landers Matt Landers
       皮特·杰森 Peter Jason
       克里斯·马尔基 Chris Mulkey
       马塞利诺·桑切斯 Marcelino Sánchez
       Bennie E. Dobbins Bennie E. Dobbins
       Begonya Plaza Begonya Plaza
       罗伊德·卡特莱特 Loyd Catlett
       里德·克鲁克香克斯 Reid Cruickshanks
       R.D. Call R.D. Call
       布伦达·维纳斯 Brenda Venus
       约翰·丹尼斯·约翰斯顿 John Dennis Johnston
       Jack Lightsy Jack Lightsy
       Luis Contreras Luis Contreras
       欧拉·蕾 Ola Ray
       Fritz Ford Fritz Ford
       Kevin O'Neal Kevin O'Neal
       Walter Scott Walter Scott
       John Hauk John Hauk
       劳伦斯·戈登 Lawrence Gordon
       乔·西尔沃 Joel Silver
       詹姆斯·霍纳 James Horner
       Ric Waite Ric Waite
       比利·韦伯 Billy Weber
       马克·华纳 Mark Warner
       Freeman A. Davies Freeman A. Davies
       Judith Holstra Judith Holstra
       约翰·瓦隆 John Vallone
       Richard C. Goddard Richard C. Goddard
       玛丽莲·万斯 Marilyn Vance
       爱德华·F.·恩里克斯 Edouard F. Henriques
       迈克尔·杰曼 Michael Germain
       David Sosna David Sosna
◎标  签 美国 / 笑剧 / 行动 / 犯罪 / 1982 / 警匪 / 美国电影 / 艾迪·墨菲
◎简  介

  杰克凯斯为三藩市一位资深警探,从21岁加入警界以来一向未能有所表示。雷吉汉蒙德为黑人区一位惯犯,从15岁起起头犯案累累。巧的是两人都想力图改变现况,而更巧的是两人居然在同时候萍水重逢,是以激发了一场争斗。                                       
                                    重刑犯艾伯特·刚茨在他的老同伴比利·拜尔的帮助下成功逃狱,他们立即杀死了自己的朋友亨利·王,用假名字住进了三藩市的瓦尔登旅店。年轻干探杰克·盖茨(Nick Nolte饰)郁不得志,酗酒成性。此番受命与同事VanZant 和Algren入住瓦尔登旅店,观察名叫G. P. Polson的人,不想VanZant 和Algren被艾伯特所害。杰克欲为同事报仇,劝服下属Haden让他自力办案。杰克到牢狱探视艾伯特畴前的同伴雷吉·汉蒙德(Eddie Murphy饰),以减刑为由,希望雷吉帮助他抓捕艾伯特和比利,雷吉委曲答应,但杰克只能将其带出牢狱48小时,更糟...
  1. Video
  2. ID                                       : 1
  3. Format                                   : HEVC
  4. Format/Info                              : High Efficiency Video Coding
  5. Format profile                           : Main [email protected]@High
  6. HDR format                               : Dolby Vision, Version 1.0, dvhe.05.06, BL+RPU
  7. Codec ID                                 : V_MPEGH/ISO/HEVC
  8. Duration                                 : 1 h 36 min
  9. Bit rate                                 : 24.9 Mb/s
  10. Width                                    : 3 840 pixels
  11. Height                                   : 2 076 pixels
  12. Display aspect ratio                     : 1.85:1
  13. Frame rate mode                          : Constant
  14. Frame rate                               : 23.976 (24000/1001/189150) FPS
  15. Color space                              : YUV
  16. Chroma subsampling                       : 4:2:0
  17. Bit depth                                : 10 bits
  18. Bits/(Pixel*Frame)                       : 0.130
  19. Stream size                              : 16.8 GiB (77%)
  20. Default                                  : Yes
  21. Forced                                   : No

  22. Audio #1
  23. ID                                       : 2
  24. Format                                   : MLP FBA
  25. Format/Info                              : Meridian Lossless Packing FBA
  26. Commercial name                          : Dolby TrueHD
  27. Codec ID                                 : A_TRUEHD
  28. Duration                                 : 1 h 36 min
  29. Bit rate mode                            : Variable
  30. Bit rate                                 : 3 273 kb/s
  31. Maximum bit rate                         : 4 629 kb/s
  32. Channel(s)                               : 6 channels
  33. Channel layout                           : L R C LFE Ls Rs
  34. Sampling rate                            : 48.0 kHz
  35. Frame rate                               : 1 200.000 FPS (40 SPF)
  36. Compression mode                         : Lossless
  37. Stream size                              : 2.21 GiB (10%)
  38. Title                                    : TrueHD 5.1
  39. Language                                 : English
  40. Default                                  : Yes
  41. Forced                                   : No

  42. Audio #2
  43. ID                                       : 3
  44. Format                                   : DTS XLL
  45. Format/Info                              : Digital Theater Systems
  46. Commercial name                          : DTS-HD Master Audio
  47. Codec ID                                 : A_DTS
  48. Duration                                 : 1 h 36 min
  49. Bit rate mode                            : Variable
  50. Bit rate                                 : 3 738 kb/s
  51. Channel(s)                               : 6 channels
  52. Channel layout                           : C L R Ls Rs LFE
  53. Sampling rate                            : 48.0 kHz
  54. Frame rate                               : 93.750 FPS (512 SPF)
  55. Bit depth                                : 24 bits
  56. Compression mode                         : Lossless
  57. Stream size                              : 2.52 GiB (11%)
  58. Title                                    : DTS-HD MA 5.1
  59. Language                                 : English
  60. Default                                  : No
  61. Forced                                   : No

  62. Audio #3
  63. ID                                       : 4
  64. Format                                   : AC-3
  65. Format/Info                              : Audio Coding 3
  66. Commercial name                          : Dolby Digital
  67. Codec ID                                 : A_AC3
  68. Duration                                 : 1 h 36 min
  69. Bit rate mode                            : Constant
  70. Bit rate                                 : 384 kb/s
  71. Channel(s)                               : 6 channels
  72. Channel layout                           : L R C LFE Ls Rs
  73. Sampling rate                            : 48.0 kHz
  74. Frame rate                               : 31.250 FPS (1536 SPF)
  75. Compression mode                         : Lossy
  76. Stream size                              : 265 MiB (1%)
  77. Title                                    : DD 5.1
  78. Language                                 : English
  79. Service kind                             : Complete Main
  80. Default                                  : Yes
  81. Forced                                   : No

  82. Text #1
  83. ID                                       : 5
  84. Format                                   : UTF-8
  85. Codec ID                                 : S_TEXT/UTF8
  86. Codec ID/Info                            : UTF-8 Plain Text
  87. Duration                                 : 1 h 29 min
  88. Bit rate                                 : 42 b/s
  89. Frame rate                               : 0.120 FPS
  90. Count of elements                        : 640
  91. Stream size                              : 27.4 KiB (0%)
  92. Language                                 : English
  93. Default                                  : Yes
  94. Forced                                   : No

  95. Text #2
  96. ID                                       : 6
  97. Format                                   : UTF-8
  98. Codec ID                                 : S_TEXT/UTF8
  99. Codec ID/Info                            : UTF-8 Plain Text
  100. Duration                                 : 1 h 31 min
  101. Bit rate                                 : 58 b/s
  102. Frame rate                               : 0.217 FPS
  103. Count of elements                        : 1187
  104. Stream size                              : 39.2 KiB (0%)
  105. Title                                    : French European
  106. Language                                 : French
  107. Default                                  : No
  108. Forced                                   : No

  109. Text #3
  110. ID                                       : 7
  111. Format                                   : PGS
  112. Muxing mode                              : zlib
  113. Codec ID                                 : S_HDMV/PGS
  114. Codec ID/Info                            : Picture based subtitle format used on BDs/HD-DVDs
  115. Duration                                 : 1 h 29 min
  116. Bit rate                                 : 25.3 kb/s
  117. Frame rate                               : 0.239 FPS
  118. Count of elements                        : 1280
  119. Stream size                              : 16.1 MiB (0%)
  120. Language                                 : English
  121. Default                                  : No
  122. Forced                                   : No

  123. Text #4
  124. ID                                       : 8
  125. Format                                   : PGS
  126. Muxing mode                              : zlib
  127. Codec ID                                 : S_HDMV/PGS
  128. Codec ID/Info                            : Picture based subtitle format used on BDs/HD-DVDs
  129. Duration                                 : 1 h 31 min
  130. Bit rate                                 : 49.6 kb/s
  131. Frame rate                               : 0.480 FPS
  132. Count of elements                        : 2646
  133. Stream size                              : 32.6 MiB (0%)
  134. Title                                    : SDH
  135. Language                                 : English
  136. Default                                  : No
  137. Forced                                   : No

  138. Text #5
  139. ID                                       : 9
  140. Format                                   : PGS
  141. Muxing mode                              : zlib
  142. Codec ID                                 : S_HDMV/PGS
  143. Codec ID/Info                            : Picture based subtitle format used on BDs/HD-DVDs
  144. Duration                                 : 1 h 29 min
  145. Bit rate                                 : 27.2 kb/s
  146. Frame rate                               : 0.254 FPS
  147. Count of elements                        : 1356
  148. Stream size                              : 17.3 MiB (0%)
  149. Language                                 : German
  150. Default                                  : No
  151. Forced                                   : No

  152. Text #6
  153. ID                                       : 10
  154. Format                                   : PGS
  155. Muxing mode                              : zlib
  156. Codec ID                                 : S_HDMV/PGS
  157. Codec ID/Info                            : Picture based subtitle format used on BDs/HD-DVDs
  158. Duration                                 : 1 h 31 min
  159. Bit rate                                 : 34.8 kb/s
  160. Frame rate                               : 0.434 FPS
  161. Count of elements                        : 2374
  162. Stream size                              : 22.7 MiB (0%)
  163. Language                                 : French
  164. Default                                  : No
  165. Forced                                   : No

  166. Text #7
  167. ID                                       : 11
  168. Format                                   : PGS
  169. Muxing mode                              : zlib
  170. Codec ID                                 : S_HDMV/PGS
  171. Codec ID/Info                            : Picture based subtitle format used on BDs/HD-DVDs
  172. Duration                                 : 1 h 29 min
  173. Bit rate                                 : 20.8 kb/s
  174. Frame rate                               : 0.362 FPS
  175. Count of elements                        : 1936
  176. Stream size                              : 13.2 MiB (0%)
  177. Language                                 : Japanese
  178. Default                                  : No
  179. Forced                                   : No

  180. Text #8
  181. ID                                       : 12
  182. Format                                   : PGS
  183. Muxing mode                              : zlib
  184. Codec ID                                 : S_HDMV/PGS
  185. Codec ID/Info                            : Picture based subtitle format used on BDs/HD-DVDs
  186. Duration                                 : 1 h 31 min
  187. Bit rate                                 : 29.1 kb/s
  188. Frame rate                               : 0.289 FPS
  189. Count of elements                        : 1578
  190. Stream size                              : 18.9 MiB (0%)
  191. Language                                 : Spanish
  192. Default                                  : No
  193. Forced                                   : No

  194. Text #9
  195. ID                                       : 13
  196. Format                                   : PGS
  197. Muxing mode                              : zlib
  198. Codec ID                                 : S_HDMV/PGS
  199. Codec ID/Info                            : Picture based subtitle format used on BDs/HD-DVDs
  200. Duration                                 : 1 h 29 min
  201. Bit rate                                 : 26.8 kb/s
  202. Frame rate                               : 0.249 FPS
  203. Count of elements                        : 1332
  204. Stream size                              : 17.1 MiB (0%)
  205. Language                                 : Italian
  206. Default                                  : No
  207. Forced                                   : No

  208. Text #10
  209. ID                                       : 14
  210. Format                                   : PGS
  211. Muxing mode                              : zlib
  212. Codec ID                                 : S_HDMV/PGS
  213. Codec ID/Info                            : Picture based subtitle format used on BDs/HD-DVDs
  214. Duration                                 : 1 h 29 min
  215. Bit rate                                 : 23.9 kb/s
  216. Frame rate                               : 0.240 FPS
  217. Count of elements                        : 1284
  218. Stream size                              : 15.3 MiB (0%)
  219. Language                                 : Danish
  220. Default                                  : No
  221. Forced                                   : No

  222. Text #11
  223. ID                                       : 15
  224. Format                                   : PGS
  225. Muxing mode                              : zlib
  226. Codec ID                                 : S_HDMV/PGS
  227. Codec ID/Info                            : Picture based subtitle format used on BDs/HD-DVDs
  228. Duration                                 : 1 h 29 min
  229. Bit rate                                 : 27.5 kb/s
  230. Frame rate                               : 0.236 FPS
  231. Count of elements                        : 1260
  232. Stream size                              : 17.6 MiB (0%)
  233. Language                                 : Dutch
  234. Default                                  : No
  235. Forced                                   : No

  236. Text #12
  237. ID                                       : 16
  238. Format                                   : PGS
  239. Muxing mode                              : zlib
  240. Codec ID                                 : S_HDMV/PGS
  241. Codec ID/Info                            : Picture based subtitle format used on BDs/HD-DVDs
  242. Duration                                 : 1 h 29 min
  243. Bit rate                                 : 24.9 kb/s
  244. Frame rate                               : 0.242 FPS
  245. Count of elements                        : 1292
  246. Stream size                              : 15.8 MiB (0%)
  247. Language                                 : Norwegian
  248. Default                                  : No
  249. Forced                                   : No

  250. Text #13
  251. ID                                       : 17
  252. Format                                   : PGS
  253. Muxing mode                              : zlib
  254. Codec ID                                 : S_HDMV/PGS
  255. Codec ID/Info                            : Picture based subtitle format used on BDs/HD-DVDs
  256. Duration                                 : 1 h 29 min
  257. Bit rate                                 : 26.7 kb/s
  258. Frame rate                               : 0.239 FPS
  259. Count of elements                        : 1276
  260. Stream size                              : 17.0 MiB (0%)
  261. Language                                 : Finnish
  262. Default                                  : No
  263. Forced                                   : No

  264. Text #14
  265. ID                                       : 18
  266. Format                                   : PGS
  267. Muxing mode                              : zlib
  268. Codec ID                                 : S_HDMV/PGS
  269. Codec ID/Info                            : Picture based subtitle format used on BDs/HD-DVDs
  270. Duration                                 : 1 h 29 min
  271. Bit rate                                 : 25.9 kb/s
  272. Frame rate                               : 0.237 FPS
  273. Count of elements                        : 1270
  274. Stream size                              : 16.5 MiB (0%)
  275. Language                                 : Swedish
  276. Default                                  : No
  277. Forced                                   : No

  278. Text #15
  279. ID                                       : 19
  280. Format                                   : PGS
  281. Muxing mode                              : zlib
  282. Codec ID                                 : S_HDMV/PGS
  283. Codec ID/Info                            : Picture based subtitle format used on BDs/HD-DVDs
  284. Duration                                 : 1 h 31 min
  285. Bit rate                                 : 27.1 kb/s
  286. Frame rate                               : 0.244 FPS
  287. Count of elements                        : 1332
  288. Stream size                              : 17.6 MiB (0%)
  289. Language                                 : Portuguese
  290. Default                                  : No
  291. Forced                                   : No

  292. Menu
  293. 00:00:00.000                             : en:Chapter 01
  294. 00:05:11.186                             : en:Chapter 02
  295. 00:10:51.151                             : en:Chapter 03
  296. 00:20:02.577                             : en:Chapter 04
  297. 00:24:10.867                             : en:Chapter 05
  298. 00:30:00.967                             : en:Chapter 06
  299. 00:36:52.837                             : en:Chapter 07
  300. 00:46:17.360                             : en:Chapter 08
  301. 00:57:28.615                             : en:Chapter 09
  302. 01:06:19.187                             : en:Chapter 10
  303. 01:11:17.027                             : en:Chapter 11
  304. 01:15:49.049                             : en:Chapter 12
  305. 01:19:29.352                             : en:Chapter 13
  306. 01:29:36.209                             : en:Chapter 14
  307. 01:32:28.923                             : en:Chapter 15
复制代码





                                       
                                       

                                       
                                       
                                       




回复

使用道具 举报

蓝光币
1
发表于 2022-8-6 18:41:25 | 显示全部楼层
感谢分享!
回复

使用道具 举报

懒得打字嘛,点击右侧快捷回复 【右侧内容,后台自定义】
您需要登录后才可以回帖 登录 | 立即加入

本版积分规则

Archiver|小黑屋| 蓝光电影网 |网站地图

Copyright © 2021 Comsenz Inc. Powered by 蓝光电影网

蓝光电影网

本站内容由用户自主分享和转载自互联网,转载目的在于传递更多信息,并不代表本网赞同其观点和对其真实性负责。

如有侵权、违反国家法律政策行为,请联系我们,我们会第一时间及时清除和处理!

举报反馈邮箱:[email protected]

快速回复 返回顶部 返回列表