找回密码

蓝光电影网

查看: 86|回复: 2

[2160p] 48小时 48.Hrs.1982.2160p.WEB-DL.x265.10bit.HDR.DTS-HD.MA.TrueHD.5.1-NOGRP 21.92GB

[复制链接]
蓝光币
894
发表于 2022-8-6 11:10:59 | 显示全部楼层 |阅读模式


◎标  题 48小时
◎译  名 特赦48小时 / 四十八小时
◎片  名 48 Hrs.
◎年  代 1982
◎产  地 美国
◎类  别 剧情 / 笑剧 / 行动 / 惊悚 / 犯罪
◎语  言 英语
◎上映日期 1982-12-08(美国)
◎IMDb评分 6.9/10 (74979人评价)
◎IMDb链接 https://www.imdb.com/title/tt0083511/
◎豆瓣评分 6.5/10 (387人评价)
◎豆瓣链接 https://movie.douban.com/subject/1301780/
◎片  长 96 分钟
◎导  演 沃尔特·希尔 Walter Hill
◎编  剧 罗杰·斯波蒂斯伍德 Roger Spottiswoode
       沃尔特·希尔 Walter Hill
       拉里·格罗斯 Larry Gross
       斯蒂芬·E.德·索萨 Steven E. de Souza
◎演  员 尼克·诺特 Nick Nolte
       艾迪·墨菲 Eddie Murphy
       安妮特·奥图 Annette O'Toole
       弗兰克·麦克雷 Frank McRae
       詹姆斯·瑞马尔 James Remar
       大卫·帕特里克·凯利 David Patrick Kelly
       索尼·兰哈姆 Sonny Landham
       布里翁·詹姆斯 Brion James
       Kerry Sherman Kerry Sherman
       乔纳森·班克斯 Jonathan Banks
       詹姆斯·基恩 James Keane
       Margot Rose Margot Rose
       丹尼斯·克罗斯比 Denise Crosby
       Olivia Brown Olivia Brown
       Todd Allen Todd Allen
       Bill Dearth Bill Dearth
       内德·道德 Ned Dowd
       吉姆·海尼 Jim Haynie
       杰克·唐蒂博 Jack Thibeau
       桑迪·马丁 Sandy Martin
       Matt Landers Matt Landers
       皮特·杰森 Peter Jason
       克里斯·马尔基 Chris Mulkey
       马塞利诺·桑切斯 Marcelino Sánchez
       Bennie E. Dobbins Bennie E. Dobbins
       Begonya Plaza Begonya Plaza
       罗伊德·卡特莱特 Loyd Catlett
       里德·克鲁克香克斯 Reid Cruickshanks
       R.D. Call R.D. Call
       布伦达·维纳斯 Brenda Venus
       约翰·丹尼斯·约翰斯顿 John Dennis Johnston
       Jack Lightsy Jack Lightsy
       Luis Contreras Luis Contreras
       欧拉·蕾 Ola Ray
       Fritz Ford Fritz Ford
       Kevin O'Neal Kevin O'Neal
       Walter Scott Walter Scott
       John Hauk John Hauk
       劳伦斯·戈登 Lawrence Gordon
       乔·西尔沃 Joel Silver
       詹姆斯·霍纳 James Horner
       Ric Waite Ric Waite
       比利·韦伯 Billy Weber
       马克·华纳 Mark Warner
       Freeman A. Davies Freeman A. Davies
       Judith Holstra Judith Holstra
       约翰·瓦隆 John Vallone
       Richard C. Goddard Richard C. Goddard
       玛丽莲·万斯 Marilyn Vance
       爱德华·F.·恩里克斯 Edouard F. Henriques
       迈克尔·杰曼 Michael Germain
       David Sosna David Sosna
◎标  签 美国 / 笑剧 / 行动 / 犯罪 / 1982 / 警匪 / 美国电影 / 艾迪·墨菲
◎简  介

  杰克凯斯为三藩市一位资深警探,从21岁加入警界以来一向未能有所表示。雷吉汉蒙德为黑人区一位惯犯,从15岁起起头犯案累累。巧的是两人都想力图改变现况,而更巧的是两人居然在同时候萍水重逢,是以激发了一场争斗。                                       
                                    重刑犯艾伯特·刚茨在他的老同伴比利·拜尔的帮助下成功逃狱,他们立即杀死了自己的朋友亨利·王,用假名字住进了三藩市的瓦尔登旅店。年轻干探杰克·盖茨(Nick Nolte饰)郁不得志,酗酒成性。此番受命与同事VanZant 和Algren入住瓦尔登旅店,观察名叫G. P. Polson的人,不想VanZant 和Algren被艾伯特所害。杰克欲为同事报仇,劝服下属Haden让他自力办案。杰克到牢狱探视艾伯特畴前的同伴雷吉·汉蒙德(Eddie Murphy饰),以减刑为由,希望雷吉帮助他抓捕艾伯特和比利,雷吉委曲答应,但杰克只能将其带出牢狱48小时,更糟...
  1. Video
  2. ID                                       : 1
  3. Format                                   : HEVC
  4. Format/Info                              : High Efficiency Video Coding
  5. Format profile                           : Main [email protected]@High
  6. HDR format                               : SMPTE ST 2086, HDR10 compatible
  7. Codec ID                                 : V_MPEGH/ISO/HEVC
  8. Duration                                 : 1 h 36 min
  9. Bit rate                                 : 24.9 Mb/s
  10. Width                                    : 3 840 pixels
  11. Height                                   : 2 076 pixels
  12. Display aspect ratio                     : 1.85:1
  13. Frame rate mode                          : Constant
  14. Frame rate                               : 23.976 FPS
  15. Color space                              : YUV
  16. Chroma subsampling                       : 4:2:0 (Type 2)
  17. Bit depth                                : 10 bits
  18. Bits/(Pixel*Frame)                       : 0.130
  19. Stream size                              : 16.8 GiB (77%)
  20. Default                                  : Yes
  21. Forced                                   : No
  22. Color range                              : Limited
  23. Color primaries                          : BT.2020
  24. Transfer characteristics                 : PQ
  25. Matrix coefficients                      : BT.2020 non-constant
  26. Mastering display color primaries        : Display P3
  27. Mastering display luminance              : min: 0.0050 cd/m2, max: 1000 cd/m2
  28. Maximum Content Light Level              : 1872 cd/m2
  29. Maximum Frame-Average Light Level        : 474 cd/m2

  30. Audio #1
  31. ID                                       : 2
  32. Format                                   : MLP FBA
  33. Format/Info                              : Meridian Lossless Packing FBA
  34. Commercial name                          : Dolby TrueHD
  35. Codec ID                                 : A_TRUEHD
  36. Duration                                 : 1 h 36 min
  37. Bit rate mode                            : Variable
  38. Bit rate                                 : 3 273 kb/s
  39. Maximum bit rate                         : 4 629 kb/s
  40. Channel(s)                               : 6 channels
  41. Channel layout                           : L R C LFE Ls Rs
  42. Sampling rate                            : 48.0 kHz
  43. Frame rate                               : 1 200.000 FPS (40 SPF)
  44. Compression mode                         : Lossless
  45. Stream size                              : 2.21 GiB (10%)
  46. Title                                    : TrueHD 5.1
  47. Language                                 : English
  48. Default                                  : Yes
  49. Forced                                   : No

  50. Audio #2
  51. ID                                       : 3
  52. Format                                   : DTS XLL
  53. Format/Info                              : Digital Theater Systems
  54. Commercial name                          : DTS-HD Master Audio
  55. Codec ID                                 : A_DTS
  56. Duration                                 : 1 h 36 min
  57. Bit rate mode                            : Variable
  58. Bit rate                                 : 3 738 kb/s
  59. Channel(s)                               : 6 channels
  60. Channel layout                           : C L R Ls Rs LFE
  61. Sampling rate                            : 48.0 kHz
  62. Frame rate                               : 93.750 FPS (512 SPF)
  63. Bit depth                                : 24 bits
  64. Compression mode                         : Lossless
  65. Stream size                              : 2.52 GiB (12%)
  66. Title                                    : DTS-HD MA 5.1
  67. Language                                 : English
  68. Default                                  : No
  69. Forced                                   : No

  70. Audio #3
  71. ID                                       : 4
  72. Format                                   : AC-3
  73. Format/Info                              : Audio Coding 3
  74. Commercial name                          : Dolby Digital
  75. Codec ID                                 : A_AC3
  76. Duration                                 : 1 h 36 min
  77. Bit rate mode                            : Constant
  78. Bit rate                                 : 384 kb/s
  79. Channel(s)                               : 6 channels
  80. Channel layout                           : L R C LFE Ls Rs
  81. Sampling rate                            : 48.0 kHz
  82. Frame rate                               : 31.250 FPS (1536 SPF)
  83. Compression mode                         : Lossy
  84. Stream size                              : 265 MiB (1%)
  85. Title                                    : DD 5.1
  86. Language                                 : English
  87. Service kind                             : Complete Main
  88. Default                                  : No
  89. Forced                                   : No

  90. Text #1
  91. ID                                       : 5
  92. Format                                   : UTF-8
  93. Codec ID                                 : S_TEXT/UTF8
  94. Codec ID/Info                            : UTF-8 Plain Text
  95. Duration                                 : 1 h 29 min
  96. Bit rate                                 : 42 b/s
  97. Frame rate                               : 0.120 FPS
  98. Count of elements                        : 640
  99. Stream size                              : 27.4 KiB (0%)
  100. Language                                 : English
  101. Default                                  : Yes
  102. Forced                                   : No

  103. Text #2
  104. ID                                       : 6
  105. Format                                   : UTF-8
  106. Codec ID                                 : S_TEXT/UTF8
  107. Codec ID/Info                            : UTF-8 Plain Text
  108. Duration                                 : 1 h 31 min
  109. Bit rate                                 : 58 b/s
  110. Frame rate                               : 0.217 FPS
  111. Count of elements                        : 1187
  112. Stream size                              : 39.2 KiB (0%)
  113. Title                                    : French European
  114. Language                                 : French
  115. Default                                  : No
  116. Forced                                   : No

  117. Text #3
  118. ID                                       : 7
  119. Format                                   : PGS
  120. Muxing mode                              : zlib
  121. Codec ID                                 : S_HDMV/PGS
  122. Codec ID/Info                            : Picture based subtitle format used on BDs/HD-DVDs
  123. Duration                                 : 1 h 29 min
  124. Bit rate                                 : 25.3 kb/s
  125. Frame rate                               : 0.239 FPS
  126. Count of elements                        : 1280
  127. Stream size                              : 16.1 MiB (0%)
  128. Language                                 : English
  129. Default                                  : No
  130. Forced                                   : No

  131. Text #4
  132. ID                                       : 8
  133. Format                                   : PGS
  134. Muxing mode                              : zlib
  135. Codec ID                                 : S_HDMV/PGS
  136. Codec ID/Info                            : Picture based subtitle format used on BDs/HD-DVDs
  137. Duration                                 : 1 h 31 min
  138. Bit rate                                 : 49.6 kb/s
  139. Frame rate                               : 0.480 FPS
  140. Count of elements                        : 2646
  141. Stream size                              : 32.6 MiB (0%)
  142. Title                                    : SDH
  143. Language                                 : English
  144. Default                                  : No
  145. Forced                                   : No

  146. Text #5
  147. ID                                       : 9
  148. Format                                   : PGS
  149. Muxing mode                              : zlib
  150. Codec ID                                 : S_HDMV/PGS
  151. Codec ID/Info                            : Picture based subtitle format used on BDs/HD-DVDs
  152. Duration                                 : 1 h 29 min
  153. Bit rate                                 : 27.2 kb/s
  154. Frame rate                               : 0.254 FPS
  155. Count of elements                        : 1356
  156. Stream size                              : 17.3 MiB (0%)
  157. Language                                 : German
  158. Default                                  : No
  159. Forced                                   : No

  160. Text #6
  161. ID                                       : 10
  162. Format                                   : PGS
  163. Muxing mode                              : zlib
  164. Codec ID                                 : S_HDMV/PGS
  165. Codec ID/Info                            : Picture based subtitle format used on BDs/HD-DVDs
  166. Duration                                 : 1 h 31 min
  167. Bit rate                                 : 34.8 kb/s
  168. Frame rate                               : 0.434 FPS
  169. Count of elements                        : 2374
  170. Stream size                              : 22.7 MiB (0%)
  171. Language                                 : French
  172. Default                                  : No
  173. Forced                                   : No

  174. Text #7
  175. ID                                       : 11
  176. Format                                   : PGS
  177. Muxing mode                              : zlib
  178. Codec ID                                 : S_HDMV/PGS
  179. Codec ID/Info                            : Picture based subtitle format used on BDs/HD-DVDs
  180. Duration                                 : 1 h 29 min
  181. Bit rate                                 : 20.8 kb/s
  182. Frame rate                               : 0.362 FPS
  183. Count of elements                        : 1936
  184. Stream size                              : 13.2 MiB (0%)
  185. Language                                 : Japanese
  186. Default                                  : No
  187. Forced                                   : No

  188. Text #8
  189. ID                                       : 12
  190. Format                                   : PGS
  191. Muxing mode                              : zlib
  192. Codec ID                                 : S_HDMV/PGS
  193. Codec ID/Info                            : Picture based subtitle format used on BDs/HD-DVDs
  194. Duration                                 : 1 h 31 min
  195. Bit rate                                 : 29.1 kb/s
  196. Frame rate                               : 0.289 FPS
  197. Count of elements                        : 1578
  198. Stream size                              : 18.9 MiB (0%)
  199. Language                                 : Spanish
  200. Default                                  : No
  201. Forced                                   : No

  202. Text #9
  203. ID                                       : 13
  204. Format                                   : PGS
  205. Muxing mode                              : zlib
  206. Codec ID                                 : S_HDMV/PGS
  207. Codec ID/Info                            : Picture based subtitle format used on BDs/HD-DVDs
  208. Duration                                 : 1 h 29 min
  209. Bit rate                                 : 26.8 kb/s
  210. Frame rate                               : 0.249 FPS
  211. Count of elements                        : 1332
  212. Stream size                              : 17.1 MiB (0%)
  213. Language                                 : Italian
  214. Default                                  : No
  215. Forced                                   : No

  216. Text #10
  217. ID                                       : 14
  218. Format                                   : PGS
  219. Muxing mode                              : zlib
  220. Codec ID                                 : S_HDMV/PGS
  221. Codec ID/Info                            : Picture based subtitle format used on BDs/HD-DVDs
  222. Duration                                 : 1 h 29 min
  223. Bit rate                                 : 23.9 kb/s
  224. Frame rate                               : 0.240 FPS
  225. Count of elements                        : 1284
  226. Stream size                              : 15.3 MiB (0%)
  227. Language                                 : Danish
  228. Default                                  : No
  229. Forced                                   : No

  230. Text #11
  231. ID                                       : 15
  232. Format                                   : PGS
  233. Muxing mode                              : zlib
  234. Codec ID                                 : S_HDMV/PGS
  235. Codec ID/Info                            : Picture based subtitle format used on BDs/HD-DVDs
  236. Duration                                 : 1 h 29 min
  237. Bit rate                                 : 27.5 kb/s
  238. Frame rate                               : 0.236 FPS
  239. Count of elements                        : 1260
  240. Stream size                              : 17.6 MiB (0%)
  241. Language                                 : Dutch
  242. Default                                  : No
  243. Forced                                   : No

  244. Text #12
  245. ID                                       : 16
  246. Format                                   : PGS
  247. Muxing mode                              : zlib
  248. Codec ID                                 : S_HDMV/PGS
  249. Codec ID/Info                            : Picture based subtitle format used on BDs/HD-DVDs
  250. Duration                                 : 1 h 29 min
  251. Bit rate                                 : 24.9 kb/s
  252. Frame rate                               : 0.242 FPS
  253. Count of elements                        : 1292
  254. Stream size                              : 15.8 MiB (0%)
  255. Language                                 : Norwegian
  256. Default                                  : No
  257. Forced                                   : No

  258. Text #13
  259. ID                                       : 17
  260. Format                                   : PGS
  261. Muxing mode                              : zlib
  262. Codec ID                                 : S_HDMV/PGS
  263. Codec ID/Info                            : Picture based subtitle format used on BDs/HD-DVDs
  264. Duration                                 : 1 h 29 min
  265. Bit rate                                 : 26.7 kb/s
  266. Frame rate                               : 0.239 FPS
  267. Count of elements                        : 1276
  268. Stream size                              : 17.0 MiB (0%)
  269. Language                                 : Finnish
  270. Default                                  : No
  271. Forced                                   : No

  272. Text #14
  273. ID                                       : 18
  274. Format                                   : PGS
  275. Muxing mode                              : zlib
  276. Codec ID                                 : S_HDMV/PGS
  277. Codec ID/Info                            : Picture based subtitle format used on BDs/HD-DVDs
  278. Duration                                 : 1 h 29 min
  279. Bit rate                                 : 25.9 kb/s
  280. Frame rate                               : 0.237 FPS
  281. Count of elements                        : 1270
  282. Stream size                              : 16.5 MiB (0%)
  283. Language                                 : Swedish
  284. Default                                  : No
  285. Forced                                   : No

  286. Text #15
  287. ID                                       : 19
  288. Format                                   : PGS
  289. Muxing mode                              : zlib
  290. Codec ID                                 : S_HDMV/PGS
  291. Codec ID/Info                            : Picture based subtitle format used on BDs/HD-DVDs
  292. Duration                                 : 1 h 31 min
  293. Bit rate                                 : 27.1 kb/s
  294. Frame rate                               : 0.244 FPS
  295. Count of elements                        : 1332
  296. Stream size                              : 17.6 MiB (0%)
  297. Language                                 : Portuguese
  298. Default                                  : No
  299. Forced                                   : No

  300. Menu
  301. 00:00:00.000                             : en:Chapter 01
  302. 00:05:11.186                             : en:Chapter 02
  303. 00:10:51.151                             : en:Chapter 03
  304. 00:20:02.577                             : en:Chapter 04
  305. 00:24:10.867                             : en:Chapter 05
  306. 00:30:00.967                             : en:Chapter 06
  307. 00:36:52.837                             : en:Chapter 07
  308. 00:46:17.360                             : en:Chapter 08
  309. 00:57:28.615                             : en:Chapter 09
  310. 01:06:19.187                             : en:Chapter 10
  311. 01:11:17.027                             : en:Chapter 11
  312. 01:15:49.049                             : en:Chapter 12
  313. 01:19:29.352                             : en:Chapter 13
  314. 01:29:36.209                             : en:Chapter 14
  315. 01:32:28.923                             : en:Chapter 15
复制代码




                                       
                                       

                                       
                                       
                                       




回复

使用道具 举报

蓝光币
155
发表于 2022-8-6 11:53:53 | 显示全部楼层
谢谢楼主分享。
回复 支持 反对

使用道具 举报

蓝光币
491
发表于 2022-8-6 20:22:59 | 显示全部楼层

楼主太厉害了!楼主,电影应该很好看我觉得蓝光电影网真是个好地方!
回复 支持 反对

使用道具 举报

懒得打字嘛,点击右侧快捷回复 【右侧内容,后台自定义】
您需要登录后才可以回帖 登录 | 立即加入

本版积分规则

Archiver|小黑屋| 蓝光电影网 |网站地图

Copyright © 2021 Comsenz Inc. Powered by 蓝光电影网

蓝光电影网

本站内容由用户自主分享和转载自互联网,转载目的在于传递更多信息,并不代表本网赞同其观点和对其真实性负责。

如有侵权、违反国家法律政策行为,请联系我们,我们会第一时间及时清除和处理!

举报反馈邮箱:[email protected]

快速回复 返回顶部 返回列表