找回密码

蓝光电影网

查看: 13|回复: 0

[剧情] 爵士情未了 A.Jazzmans.Blues.2022.1080p.NF.WEBRip.DDP5.1.Atmos.x264-SMURF 6.76GB

[复制链接]
蓝光币
975
发表于 2022-9-23 18:01:44 | 显示全部楼层 |阅读模式
[img][/img]

◎标  题 爵士情未了
◎译  名 像爵士那样郁闷
◎片  名 A Jazzman's Blues
◎年  代 2022
◎产  地 美国
◎类  别 剧情
◎语  言 英语
◎上映日期 2022-09-10(多伦多电影节) / 2022-09-16(美国) / 2022-09-23(美国收集)
◎IMDb评分 8.1/10 (31人评价)
◎IMDb链接 https://www.imdb.com/title/tt14307536/
◎豆瓣链接 https://movie.douban.com/subject/36024621/
◎片  长 127分钟
◎导  演 泰勒·派瑞 Tyler Perry
◎编  剧 泰勒·派瑞 Tyler Perry
◎演  员 约书亚·布恩 Joshua Boone
       索莱亚·菲佛 Solea Pfeiffer
       阿米拉·万恩 Amirah Vann
       E·罗杰·米切尔 E. Roger Mitchell
       米拉娜·杰克逊 Milauna Jackson
       瑞安·艾戈尔德 Ryan Eggold
       布拉德·本尼迪克特 Brad Benedict
       劳伦·布格利里 Lauren Buglioli
       贝利·M·B Bailey MB
       布兰特·安东尼洛 Brent Antonello
       拉娜·扬 Lana Young
       Austin Scott Austin Scott
       莫内·门罗 Mone Monroe
       科迪·普莱斯利 Cody Pressley
       凯莉·戴维斯 Kelley Davis
        Michael Wayne Thomas
       罗伯特·史蒂文斯·韦恩 Robert Stevens Wayne
        Rickey Colbert
◎简  介

  Follows an investigation into an unsolved murder unveiling a story full of forbidden love, deceit and a secret.
  1. Video
  2. ID                                       : 1
  3. Format                                   : AVC
  4. Format/Info                              : Advanced Video Codec
  5. Format profile                           : [email protected]
  6. Format settings                          : CABAC / 4 Ref Frames
  7. Format settings, CABAC                   : Yes
  8. Format settings, Reference frames        : 4 frames
  9. Codec ID                                 : V_MPEG4/ISO/AVC
  10. Duration                                 : 2 h 8 min
  11. Bit rate mode                            : Variable
  12. Bit rate                                 : 6 787 kb/s
  13. Maximum bit rate                         : 20.0 Mb/s
  14. Width                                    : 1 920 pixels
  15. Height                                   : 1 080 pixels
  16. Display aspect ratio                     : 16:9
  17. Frame rate mode                          : Constant
  18. Frame rate                               : 23.976 (24000/1001/189150) FPS
  19. Color space                              : YUV
  20. Chroma subsampling                       : 4:2:0
  21. Bit depth                                : 8 bits
  22. Scan type                                : Progressive
  23. Bits/(Pixel*Frame)                       : 0.137
  24. Stream size                              : 6.07 GiB (90%)
  25. Writing library                          : x264 core 148 r2727 7d026e8
  26. Encoding settings                        : cabac=1 / ref=4 / deblock=1:0:0 / analyse=0x3:0x111 / me=umh / subme=10 / psy=1 / psy_rd=1.00:0.00 / mixed_ref=1 / me_range=120 / chroma_me=1 / trellis=2 / 8x8dct=1 / cqm=0 / deadzone=21,11 / fast_pskip=1 / chroma_qp_offset=-2 / threads=8 / lookahead_threads=2 / sliced_threads=0 / nr=0 / decimate=1 / interlaced=0 / bluray_compat=0 / stitchable=1 / constrained_intra=0 / bframes=16 / b_pyramid=2 / b_adapt=2 / b_bias=0 / direct=3 / weightb=1 / open_gop=0 / weightp=2 / keyint=240 / keyint_min=121 / scenecut=0 / intra_refresh=0 / rc_lookahead=240 / rc=crf / mbtree=1 / crf=16.0 / qcomp=0.50 / qpmin=6 / qpmax=51 / qpstep=4 / vbv_maxrate=20000 / vbv_bufsize=25000 / crf_max=0.0 / nal_hrd=vbr / filler=0 / ip_ratio=1.40 / aq=1:0.80
  27. Language                                 : English
  28. Default                                  : Yes
  29. Forced                                   : No
  30. Audio
  31. ID                                       : 2
  32. Format                                   : E-AC-3 JOC
  33. Format/Info                              : Enhanced AC-3 with Joint Object Coding
  34. Commercial name                          : Dolby Digital Plus with Dolby Atmos
  35. Codec ID                                 : A_EAC3
  36. Duration                                 : 2 h 8 min
  37. Bit rate mode                            : Constant
  38. Bit rate                                 : 768 kb/s
  39. Channel(s)                               : 6 channels
  40. Channel layout                           : L R C LFE Ls Rs
  41. Sampling rate                            : 48.0 kHz
  42. Frame rate                               : 31.250 FPS (1536 SPF)
  43. Compression mode                         : Lossy
  44. Stream size                              : 703 MiB (10%)
  45. Language                                 : English
  46. Service kind                             : Complete Main
  47. Default                                  : Yes
  48. Forced                                   : No
  49. Complexity index                         : 16
  50. Number of dynamic objects                : 15
  51. Bed channel count                        : 1 channel
  52. Bed channel configuration                : LFE
  53. Text #1
  54. ID                                       : 3
  55. Format                                   : UTF-8
  56. Codec ID                                 : S_TEXT/UTF8
  57. Codec ID/Info                            : UTF-8 Plain Text
  58. Duration                                 : 1 h 57 min
  59. Bit rate                                 : 57 b/s
  60. Frame rate                               : 0.218 FPS
  61. Count of elements                        : 1538
  62. Stream size                              : 49.5 KiB (0%)
  63. Language                                 : English
  64. Default                                  : No
  65. Forced                                   : No
  66. Text #2
  67. ID                                       : 4
  68. Format                                   : UTF-8
  69. Codec ID                                 : S_TEXT/UTF8
  70. Codec ID/Info                            : UTF-8 Plain Text
  71. Duration                                 : 2 h 6 min
  72. Bit rate                                 : 74 b/s
  73. Frame rate                               : 0.276 FPS
  74. Count of elements                        : 2093
  75. Stream size                              : 69.0 KiB (0%)
  76. Title                                    : SDH
  77. Language                                 : English
  78. Default                                  : No
  79. Forced                                   : No
  80. Text #3
  81. ID                                       : 5
  82. Format                                   : UTF-8
  83. Codec ID                                 : S_TEXT/UTF8
  84. Codec ID/Info                            : UTF-8 Plain Text
  85. Duration                                 : 2 h 6 min
  86. Bit rate                                 : 87 b/s
  87. Frame rate                               : 0.222 FPS
  88. Count of elements                        : 1684
  89. Stream size                              : 81.1 KiB (0%)
  90. Language                                 : Arabic
  91. Default                                  : No
  92. Forced                                   : No
  93. Text #4
  94. ID                                       : 6
  95. Format                                   : UTF-8
  96. Codec ID                                 : S_TEXT/UTF8
  97. Codec ID/Info                            : UTF-8 Plain Text
  98. Duration                                 : 2 h 6 min
  99. Bit rate                                 : 52 b/s
  100. Frame rate                               : 0.222 FPS
  101. Count of elements                        : 1682
  102. Stream size                              : 48.3 KiB (0%)
  103. Language                                 : Czech
  104. Default                                  : No
  105. Forced                                   : No
  106. Text #5
  107. ID                                       : 7
  108. Format                                   : UTF-8
  109. Codec ID                                 : S_TEXT/UTF8
  110. Codec ID/Info                            : UTF-8 Plain Text
  111. Duration                                 : 2 h 6 min
  112. Bit rate                                 : 49 b/s
  113. Frame rate                               : 0.205 FPS
  114. Count of elements                        : 1553
  115. Stream size                              : 45.7 KiB (0%)
  116. Language                                 : Danish
  117. Default                                  : No
  118. Forced                                   : No
  119. Text #6
  120. ID                                       : 8
  121. Format                                   : UTF-8
  122. Codec ID                                 : S_TEXT/UTF8
  123. Codec ID/Info                            : UTF-8 Plain Text
  124. Duration                                 : 2 h 6 min
  125. Bit rate                                 : 55 b/s
  126. Frame rate                               : 0.207 FPS
  127. Count of elements                        : 1567
  128. Stream size                              : 51.8 KiB (0%)
  129. Language                                 : German
  130. Default                                  : No
  131. Forced                                   : No
  132. Text #7
  133. ID                                       : 9
  134. Format                                   : UTF-8
  135. Codec ID                                 : S_TEXT/UTF8
  136. Codec ID/Info                            : UTF-8 Plain Text
  137. Duration                                 : 2 h 6 min
  138. Bit rate                                 : 86 b/s
  139. Frame rate                               : 0.218 FPS
  140. Count of elements                        : 1657
  141. Stream size                              : 80.2 KiB (0%)
  142. Language                                 : Greek
  143. Default                                  : No
  144. Forced                                   : No
  145. Text #8
  146. ID                                       : 10
  147. Format                                   : UTF-8
  148. Codec ID                                 : S_TEXT/UTF8
  149. Codec ID/Info                            : UTF-8 Plain Text
  150. Duration                                 : 2 h 6 min
  151. Bit rate                                 : 49 b/s
  152. Frame rate                               : 0.219 FPS
  153. Count of elements                        : 1660
  154. Stream size                              : 46.2 KiB (0%)
  155. Language                                 : Spanish
  156. Default                                  : No
  157. Forced                                   : No
  158. Text #9
  159. ID                                       : 11
  160. Format                                   : UTF-8
  161. Codec ID                                 : S_TEXT/UTF8
  162. Codec ID/Info                            : UTF-8 Plain Text
  163. Duration                                 : 2 h 6 min
  164. Bit rate                                 : 48 b/s
  165. Frame rate                               : 0.222 FPS
  166. Count of elements                        : 1686
  167. Stream size                              : 44.7 KiB (0%)
  168. Title                                    : European
  169. Language                                 : Spanish
  170. Default                                  : No
  171. Forced                                   : No
  172. Text #10
  173. ID                                       : 12
  174. Format                                   : UTF-8
  175. Codec ID                                 : S_TEXT/UTF8
  176. Codec ID/Info                            : UTF-8 Plain Text
  177. Duration                                 : 2 h 6 min
  178. Bit rate                                 : 50 b/s
  179. Frame rate                               : 0.191 FPS
  180. Count of elements                        : 1446
  181. Stream size                              : 46.5 KiB (0%)
  182. Language                                 : Finnish
  183. Default                                  : No
  184. Forced                                   : No
  185. Text #11
  186. ID                                       : 13
  187. Format                                   : UTF-8
  188. Codec ID                                 : S_TEXT/UTF8
  189. Codec ID/Info                            : UTF-8 Plain Text
  190. Duration                                 : 2 h 6 min
  191. Bit rate                                 : 50 b/s
  192. Frame rate                               : 0.222 FPS
  193. Count of elements                        : 1682
  194. Stream size                              : 46.3 KiB (0%)
  195. Language                                 : French
  196. Default                                  : No
  197. Forced                                   : No
  198. Text #12
  199. ID                                       : 14
  200. Format                                   : UTF-8
  201. Codec ID                                 : S_TEXT/UTF8
  202. Codec ID/Info                            : UTF-8 Plain Text
  203. Duration                                 : 2 h 6 min
  204. Bit rate                                 : 84 b/s
  205. Frame rate                               : 0.221 FPS
  206. Count of elements                        : 1678
  207. Stream size                              : 78.1 KiB (0%)
  208. Language                                 : Hebrew
  209. Default                                  : No
  210. Forced                                   : No
  211. Text #13
  212. ID                                       : 15
  213. Format                                   : UTF-8
  214. Codec ID                                 : S_TEXT/UTF8
  215. Codec ID/Info                            : UTF-8 Plain Text
  216. Duration                                 : 2 h 6 min
  217. Bit rate                                 : 48 b/s
  218. Frame rate                               : 0.221 FPS
  219. Count of elements                        : 1675
  220. Stream size                              : 44.8 KiB (0%)
  221. Language                                 : Croatian
  222. Default                                  : No
  223. Forced                                   : No
  224. Text #14
  225. ID                                       : 16
  226. Format                                   : UTF-8
  227. Codec ID                                 : S_TEXT/UTF8
  228. Codec ID/Info                            : UTF-8 Plain Text
  229. Duration                                 : 2 h 6 min
  230. Bit rate                                 : 50 b/s
  231. Frame rate                               : 0.208 FPS
  232. Count of elements                        : 1580
  233. Stream size                              : 46.9 KiB (0%)
  234. Language                                 : Hungarian
  235. Default                                  : No
  236. Forced                                   : No
  237. Text #15
  238. ID                                       : 17
  239. Format                                   : UTF-8
  240. Codec ID                                 : S_TEXT/UTF8
  241. Codec ID/Info                            : UTF-8 Plain Text
  242. Duration                                 : 2 h 6 min
  243. Bit rate                                 : 54 b/s
  244. Frame rate                               : 0.213 FPS
  245. Count of elements                        : 1615
  246. Stream size                              : 50.1 KiB (0%)
  247. Language                                 : Indonesian
  248. Default                                  : No
  249. Forced                                   : No
  250. Text #16
  251. ID                                       : 18
  252. Format                                   : UTF-8
  253. Codec ID                                 : S_TEXT/UTF8
  254. Codec ID/Info                            : UTF-8 Plain Text
  255. Duration                                 : 2 h 6 min
  256. Bit rate                                 : 51 b/s
  257. Frame rate                               : 0.210 FPS
  258. Count of elements                        : 1591
  259. Stream size                              : 47.4 KiB (0%)
  260. Language                                 : Italian
  261. Default                                  : No
  262. Forced                                   : No
  263. Text #17
  264. ID                                       : 19
  265. Format                                   : UTF-8
  266. Codec ID                                 : S_TEXT/UTF8
  267. Codec ID/Info                            : UTF-8 Plain Text
  268. Duration                                 : 2 h 6 min
  269. Bit rate                                 : 55 b/s
  270. Frame rate                               : 0.225 FPS
  271. Count of elements                        : 1704
  272. Stream size                              : 51.7 KiB (0%)
  273. Language                                 : Japanese
  274. Default                                  : No
  275. Forced                                   : No
  276. Text #18
  277. ID                                       : 20
  278. Format                                   : UTF-8
  279. Codec ID                                 : S_TEXT/UTF8
  280. Codec ID/Info                            : UTF-8 Plain Text
  281. Duration                                 : 2 h 6 min
  282. Bit rate                                 : 59 b/s
  283. Frame rate                               : 0.223 FPS
  284. Count of elements                        : 1693
  285. Stream size                              : 55.5 KiB (0%)
  286. Language                                 : Korean
  287. Default                                  : No
  288. Forced                                   : No
  289. Text #19
  290. ID                                       : 21
  291. Format                                   : UTF-8
  292. Codec ID                                 : S_TEXT/UTF8
  293. Codec ID/Info                            : UTF-8 Plain Text
  294. Duration                                 : 1 h 58 min
  295. Bit rate                                 : 53 b/s
  296. Frame rate                               : 0.215 FPS
  297. Count of elements                        : 1537
  298. Stream size                              : 46.2 KiB (0%)
  299. Language                                 : Malay
  300. Default                                  : No
  301. Forced                                   : No
  302. Text #20
  303. ID                                       : 22
  304. Format                                   : UTF-8
  305. Codec ID                                 : S_TEXT/UTF8
  306. Codec ID/Info                            : UTF-8 Plain Text
  307. Duration                                 : 2 h 6 min
  308. Bit rate                                 : 52 b/s
  309. Frame rate                               : 0.204 FPS
  310. Count of elements                        : 1545
  311. Stream size                              : 48.5 KiB (0%)
  312. Language                                 : Norwegian Bokmal
  313. Default                                  : No
  314. Forced                                   : No
  315. Text #21
  316. ID                                       : 23
  317. Format                                   : UTF-8
  318. Codec ID                                 : S_TEXT/UTF8
  319. Codec ID/Info                            : UTF-8 Plain Text
  320. Duration                                 : 2 h 6 min
  321. Bit rate                                 : 50 b/s
  322. Frame rate                               : 0.214 FPS
  323. Count of elements                        : 1624
  324. Stream size                              : 47.0 KiB (0%)
  325. Language                                 : Dutch
  326. Default                                  : No
  327. Forced                                   : No
  328. Text #22
  329. ID                                       : 24
  330. Format                                   : UTF-8
  331. Codec ID                                 : S_TEXT/UTF8
  332. Codec ID/Info                            : UTF-8 Plain Text
  333. Duration                                 : 2 h 6 min
  334. Bit rate                                 : 45 b/s
  335. Frame rate                               : 0.217 FPS
  336. Count of elements                        : 1643
  337. Stream size                              : 42.0 KiB (0%)
  338. Language                                 : Polish
  339. Default                                  : No
  340. Forced                                   : No
  341. Text #23
  342. ID                                       : 25
  343. Format                                   : UTF-8
  344. Codec ID                                 : S_TEXT/UTF8
  345. Codec ID/Info                            : UTF-8 Plain Text
  346. Duration                                 : 2 h 6 min
  347. Bit rate                                 : 51 b/s
  348. Frame rate                               : 0.209 FPS
  349. Count of elements                        : 1588
  350. Stream size                              : 47.6 KiB (0%)
  351. Language                                 : Portuguese
  352. Default                                  : No
  353. Forced                                   : No
  354. Text #24
  355. ID                                       : 26
  356. Format                                   : UTF-8
  357. Codec ID                                 : S_TEXT/UTF8
  358. Codec ID/Info                            : UTF-8 Plain Text
  359. Duration                                 : 2 h 6 min
  360. Bit rate                                 : 52 b/s
  361. Frame rate                               : 0.223 FPS
  362. Count of elements                        : 1689
  363. Stream size                              : 48.8 KiB (0%)
  364. Title                                    : Brazilian
  365. Language                                 : Portuguese
  366. Default                                  : No
  367. Forced                                   : No
  368. Text #25
  369. ID                                       : 27
  370. Format                                   : UTF-8
  371. Codec ID                                 : S_TEXT/UTF8
  372. Codec ID/Info                            : UTF-8 Plain Text
  373. Duration                                 : 2 h 6 min
  374. Bit rate                                 : 58 b/s
  375. Frame rate                               : 0.197 FPS
  376. Count of elements                        : 1491
  377. Stream size                              : 53.8 KiB (0%)
  378. Language                                 : Romanian
  379. Default                                  : No
  380. Forced                                   : No
  381. Text #26
  382. ID                                       : 28
  383. Format                                   : UTF-8
  384. Codec ID                                 : S_TEXT/UTF8
  385. Codec ID/Info                            : UTF-8 Plain Text
  386. Duration                                 : 2 h 6 min
  387. Bit rate                                 : 82 b/s
  388. Frame rate                               : 0.217 FPS
  389. Count of elements                        : 1649
  390. Stream size                              : 76.5 KiB (0%)
  391. Language                                 : Russian
  392. Default                                  : No
  393. Forced                                   : No
  394. Text #27
  395. ID                                       : 29
  396. Format                                   : UTF-8
  397. Codec ID                                 : S_TEXT/UTF8
  398. Codec ID/Info                            : UTF-8 Plain Text
  399. Duration                                 : 2 h 6 min
  400. Bit rate                                 : 51 b/s
  401. Frame rate                               : 0.205 FPS
  402. Count of elements                        : 1554
  403. Stream size                              : 47.5 KiB (0%)
  404. Language                                 : Swedish
  405. Default                                  : No
  406. Forced                                   : No
  407. Text #28
  408. ID                                       : 30
  409. Format                                   : UTF-8
  410. Codec ID                                 : S_TEXT/UTF8
  411. Codec ID/Info                            : UTF-8 Plain Text
  412. Duration                                 : 2 h 6 min
  413. Bit rate                                 : 133 b/s
  414. Frame rate                               : 0.220 FPS
  415. Count of elements                        : 1667
  416. Stream size                              : 123 KiB (0%)
  417. Language                                 : Thai
  418. Default                                  : No
  419. Forced                                   : No
  420. Text #29
  421. ID                                       : 31
  422. Format                                   : UTF-8
  423. Codec ID                                 : S_TEXT/UTF8
  424. Codec ID/Info                            : UTF-8 Plain Text
  425. Duration                                 : 2 h 6 min
  426. Bit rate                                 : 52 b/s
  427. Frame rate                               : 0.219 FPS
  428. Count of elements                        : 1658
  429. Stream size                              : 48.4 KiB (0%)
  430. Language                                 : Turkish
  431. Default                                  : No
  432. Forced                                   : No
  433. Text #30
  434. ID                                       : 32
  435. Format                                   : UTF-8
  436. Codec ID                                 : S_TEXT/UTF8
  437. Codec ID/Info                            : UTF-8 Plain Text
  438. Duration                                 : 2 h 6 min
  439. Bit rate                                 : 83 b/s
  440. Frame rate                               : 0.218 FPS
  441. Count of elements                        : 1655
  442. Stream size                              : 77.5 KiB (0%)
  443. Language                                 : Ukrainian
  444. Default                                  : No
  445. Forced                                   : No
  446. Text #31
  447. ID                                       : 33
  448. Format                                   : UTF-8
  449. Codec ID                                 : S_TEXT/UTF8
  450. Codec ID/Info                            : UTF-8 Plain Text
  451. Duration                                 : 2 h 6 min
  452. Bit rate                                 : 76 b/s
  453. Frame rate                               : 0.202 FPS
  454. Count of elements                        : 1531
  455. Stream size                              : 71.2 KiB (0%)
  456. Language                                 : Vietnamese
  457. Default                                  : No
  458. Forced                                   : No
  459. Text #32
  460. ID                                       : 34
  461. Format                                   : UTF-8
  462. Codec ID                                 : S_TEXT/UTF8
  463. Codec ID/Info                            : UTF-8 Plain Text
  464. Duration                                 : 2 h 6 min
  465. Bit rate                                 : 55 b/s
  466. Frame rate                               : 0.220 FPS
  467. Count of elements                        : 1668
  468. Stream size                              : 51.4 KiB (0%)
  469. Title                                    : Simplified
  470. Language                                 : Chinese
  471. Default                                  : No
  472. Forced                                   : No
  473. Text #33
  474. ID                                       : 35
  475. Format                                   : UTF-8
  476. Codec ID                                 : S_TEXT/UTF8
  477. Codec ID/Info                            : UTF-8 Plain Text
  478. Duration                                 : 2 h 6 min
  479. Bit rate                                 : 54 b/s
  480. Frame rate                               : 0.223 FPS
  481. Count of elements                        : 1689
  482. Stream size                              : 50.8 KiB (0%)
  483. Title                                    : Traditional
  484. Language                                 : Chinese
  485. Default                                  : No
  486. Forced                                   : No
复制代码




                                       
                                       

                                       
                                       
                                       




回复

使用道具 举报

懒得打字嘛,点击右侧快捷回复 【右侧内容,后台自定义】
您需要登录后才可以回帖 登录 | 立即加入

本版积分规则

Archiver|小黑屋| 蓝光电影网 |网站地图

Copyright © 2021 Comsenz Inc. Powered by 蓝光电影网

蓝光电影网

本站内容由用户自主分享和转载自互联网,转载目的在于传递更多信息,并不代表本网赞同其观点和对其真实性负责。

如有侵权、违反国家法律政策行为,请联系我们,我们会第一时间及时清除和处理!

举报反馈邮箱:[email protected]

快速回复 返回顶部 返回列表