找回密码

蓝光电影网

查看: 763|回复: 27

[2160p] 伊尼舍林的报丧女妖 The.Banshees.of.Inisherin.2022.2160p.WEB-DL.DDP5.1.DV.MP4.x265-DVSUX

[复制链接]
蓝光币
1084
发表于 2022-12-16 13:22:53 | 显示全部楼层 |阅读模式
[img][/img]

◎标  题 伊尼舍林的报丧女妖
◎译  名 伊尼舍林的女妖(台) / 伊尼希尔的女妖 / 伊尼希尔岛的女妖 / 伊尼希尔岛的报丧女妖 / The Banshees of Inisheer
◎片  名 The Banshees of Inisherin
◎年  代 2022
◎产  地 爱尔兰 / 英国 / 美国
◎类  别 剧情
◎语  言 英语
◎上映日期 2022-09-05(威尼斯电影节) / 2022-10-21(美国)
◎IMDb评分 8.2/10 (16191人评价)
◎IMDb链接 https://www.imdb.com/title/tt11813216/
◎豆瓣评分 8.2/10 (1081人评价)
◎豆瓣链接 https://movie.douban.com/subject/34969348/
◎片  长 108分钟
◎导  演 马丁·麦克唐纳 Martin McDonagh
◎编  剧 马丁·麦克唐纳 Martin McDonagh
◎演  员 科林·法瑞尔 Colin Farrell
       布莱丹·格里森 Brendan Gleeson
       巴里·基奥恩 Barry Keoghan
       凯瑞·康顿 Kerry Condon
       帕特·绍特 Pat Shortt
       盖瑞·莱登 Gary Lydon
       Bríd Ní Neachtain Bríd Ní Neachtain
       埃默·尼·毛尔多姆奈 Eimer Ni Mhaoldomhnaigh
◎简  介

  柯林·法瑞尔、布兰登·格里森再度合作,饰演一对爱尔兰伊尼舍林海滨小岛的好兄弟,却面临断交危机,这回断的不但友谊,还有手指!马丁·麦克唐纳再展拿手黑色嘲讽笑剧,当友谊走到绝顶的心碎和危险推到极端,所发生的愤慨与报复,居然比恋爱还失控,时空布景与爱尔兰内战遥相对照,更显其恶兴趣。
  1. Video
  2. ID                                       : 1
  3. Format                                   : HEVC
  4. Format/Info                              : High Efficiency Video Coding
  5. Format profile                           : Main [email protected]@High
  6. HDR format                               : Dolby Vision, Version 1.0, dvhe.05.06, BL+RPU
  7. Codec ID                                 : dvhe
  8. Codec ID/Info                            : High Efficiency Video Coding with Dolby Vision
  9. Duration                                 : 1 h 53 min
  10. Bit rate                                 : 14.3 Mb/s
  11. Width                                    : 3 840 pixels
  12. Height                                   : 1 608 pixels
  13. Display aspect ratio                     : 2.40:1
  14. Frame rate mode                          : Constant
  15. Frame rate                               : 23.976 (24000/1001/189150) FPS
  16. Color space                              : YUV
  17. Chroma subsampling                       : 4:2:0
  18. Bit depth                                : 10 bits
  19. Bits/(Pixel*Frame)                       : 0.097
  20. Stream size                              : 11.4 GiB (96%)
  21. Default                                  : Yes
  22. Alternate group                          : 1
  23. Encoded date                             : UTC 2022-12-13 17:02:10
  24. Tagged date                              : UTC 2022-12-13 17:03:52
  25. Codec configuration box                  : hvcC+dvcC

  26. Audio
  27. ID                                       : 2
  28. Format                                   : E-AC-3
  29. Format/Info                              : Enhanced AC-3
  30. Commercial name                          : Dolby Digital Plus
  31. Codec ID                                 : ec-3
  32. Duration                                 : 1 h 53 min
  33. Bit rate mode                            : Constant
  34. Bit rate                                 : 640 kb/s
  35. Maximum bit rate                         : 676 kb/s
  36. Channel(s)                               : 6 channels
  37. Channel layout                           : L R C LFE Ls Rs
  38. Sampling rate                            : 48.0 kHz
  39. Frame rate                               : 31.250 FPS (1536 SPF)
  40. Compression mode                         : Lossy
  41. Stream size                              : 521 MiB (4%)
  42. Title                                    : English
  43. Language                                 : English
  44. Service kind                             : Complete Main
  45. Default                                  : Yes
  46. Alternate group                          : 1
  47. Tagged date                              : UTC 2022-12-13 17:03:52

  48. Text #1
  49. ID                                       : 3
  50. Format                                   : Timed Text
  51. Codec ID                                 : tx3g
  52. Duration                                 : 1 h 47 min
  53. Bit rate mode                            : Variable
  54. Bit rate                                 : 55 b/s
  55. Frame rate                               : 0.372 FPS
  56. Stream size                              : 43.1 KiB (0%)
  57. Title                                    : English
  58. Language                                 : English
  59. Forced                                   : No
  60. Encoded date                             : UTC 2022-12-13 17:03:52
  61. Tagged date                              : UTC 2022-12-13 17:03:52

  62. Text #2
  63. ID                                       : 4
  64. Format                                   : Timed Text
  65. Codec ID                                 : tx3g
  66. Duration                                 : 1 h 49 min
  67. Bit rate mode                            : Variable
  68. Bit rate                                 : 67 b/s
  69. Frame rate                               : 0.440 FPS
  70. Stream size                              : 53.6 KiB (0%)
  71. Title                                    : English
  72. Language                                 : English
  73. Forced                                   : No
  74. Encoded date                             : UTC 2022-12-13 17:03:52
  75. Tagged date                              : UTC 2022-12-13 17:03:52

  76. Text #3
  77. ID                                       : 5
  78. Format                                   : Timed Text
  79. Codec ID                                 : tx3g
  80. Duration                                 : 1 h 50 min
  81. Bit rate mode                            : Variable
  82. Bit rate                                 : 48 b/s
  83. Frame rate                               : 0.362 FPS
  84. Stream size                              : 38.5 KiB (0%)
  85. Title                                    : French
  86. Language                                 : French
  87. Forced                                   : No
  88. Encoded date                             : UTC 2022-12-13 17:03:52
  89. Tagged date                              : UTC 2022-12-13 17:03:52

  90. Text #4
  91. ID                                       : 6
  92. Format                                   : Timed Text
  93. Codec ID                                 : tx3g
  94. Duration                                 : 1 h 50 min
  95. Bit rate mode                            : Variable
  96. Bit rate                                 : 50 b/s
  97. Frame rate                               : 0.362 FPS
  98. Stream size                              : 40.1 KiB (0%)
  99. Title                                    : Spanish
  100. Language                                 : Spanish
  101. Forced                                   : No
  102. Encoded date                             : UTC 2022-12-13 17:03:52
  103. Tagged date                              : UTC 2022-12-13 17:03:52
复制代码




                                       
                                       

                                       
                                       
                                       




回复

使用道具 举报

蓝光币
53
发表于 2022-12-16 13:53:31 | 显示全部楼层
为什么充值会员不到账?
回复 支持 反对

使用道具 举报

蓝光币
40
发表于 2022-12-16 14:43:21 | 显示全部楼层
楼主发贴辛苦了,谢谢楼主分享!我觉得蓝光电影网是注册对了!
回复 支持 反对

使用道具 举报

蓝光币
60
发表于 2022-12-16 15:27:02 | 显示全部楼层

楼主发贴辛苦了,谢谢楼主分享!我觉得蓝光电影网是注册对了!
回复 支持 反对

使用道具 举报

蓝光币
814
发表于 2022-12-16 18:38:06 | 显示全部楼层

楼主太厉害了!楼主,电影应该很好看我觉得蓝光电影网真是个好地方!
回复 支持 反对

使用道具 举报

蓝光币
3743
发表于 2022-12-16 19:50:07 | 显示全部楼层

这东西我收了!谢谢楼主!蓝光电影网真好!
回复 支持 反对

使用道具 举报

蓝光币
0
发表于 2022-12-16 21:59:32 | 显示全部楼层
楼主发贴辛苦了,谢谢楼主分享!我觉得蓝光电影网是注册对了!
回复 支持 反对

使用道具 举报

蓝光币
32
发表于 2022-12-16 23:43:12 | 显示全部楼层


楼主太厉害了!楼主,电影应该很好看我觉得蓝光电影网真是个好地方!
回复 支持 反对

使用道具 举报

蓝光币
30
发表于 2022-12-17 08:32:36 | 显示全部楼层

楼主太厉害了!楼主,电影应该很好看我觉得蓝光电影网真是个好地方!
回复 支持 反对

使用道具 举报

蓝光币
30
发表于 2022-12-17 08:33:39 | 显示全部楼层

既然你诚信诚意的推荐了,那我就勉为其难的看看吧!蓝光电影网不走平凡路。
回复 支持 反对

使用道具 举报

懒得打字嘛,点击右侧快捷回复 【右侧内容,后台自定义】
您需要登录后才可以回帖 登录 | 立即加入

本版积分规则

Archiver|小黑屋| 蓝光电影网 |网站地图

Copyright © 2021 Comsenz Inc. Powered by 蓝光电影网

蓝光电影网

本站内容由用户自主分享和转载自互联网,转载目的在于传递更多信息,并不代表本网赞同其观点和对其真实性负责。

如有侵权、违反国家法律政策行为,请联系我们,我们会第一时间及时清除和处理!

举报反馈邮箱:[email protected]

快速回复 返回顶部 返回列表