找回密码

蓝光电影网

查看: 517|回复: 25

[剧情] 少林三十六房 The.36th.Chamber.of.Shaolin.1978.REMASTERED.1080p.BluRay.x264-ORBS 14.96GB

[复制链接]
蓝光币
1084
发表于 2022-12-21 22:28:07 | 显示全部楼层 |阅读模式
[img][/img]

◎标  题 少林三十六房
◎译  名 The 36th Chamber of Shaolin
◎年  代 1978
◎产  地 中国香港
◎类  别 剧情 / 行动 / 冒险 / 武侠 / 古装
◎语  言 汉语普通话 / 粤语
◎上映日期 1978-02-02(中国香港)
◎IMDb评分 7.7/10 (15859人评价)
◎IMDb链接 https://www.imdb.com/title/tt0078243/
◎豆瓣评分 7.6/10 (6983人评价)
◎豆瓣链接 https://movie.douban.com/subject/1390006/
◎片  长 115分钟
◎导  演 刘家良 Kar-Leung Lau
       刘家辉 Chia Hui Liu
◎编  剧 倪匡 Kuang Ni
◎演  员 刘家辉 Chia Hui Liu
       罗烈 Lieh Lo
       刘家荣 Chia Yung Liu
       徐少强 Norman Chu
       张午郎 John Cheung
       唐伟成 Wilson Tong
       吴杭生 Hang-Sheng Wu
       汪禹 Yue Wong
       矮冬瓜 Tung Kwa Ngai
       陈会毅 Billy Chan
       陈龙 Peter Chan Lung
       詹森 Shen Chan
       陈思佳 Szu-Chia Chen
       顾占熊 Tsan-Hsiung Ku
       刘家良 Kar-Leung Lau
       泰山 San Tai
       张石庵 Shih-Ou Chang
       雷达 Tat Lui
       张作舟 Chok Chow Cheung
       王憾尘 Han Chen Wang
       于洋 Henry Yu
       金天柱 Tien-Chu Chin
       刘准 Cheun Lau
       何其昌 Ho Kei-Cheong
       罗强 Chiang Lo
       黄拔景 Huang Pa-Ching
       余袁稳 Yu Yuen Yin
       周小来 Siu Loi Chow
       黄哈 Ha Huang
       李海生 Hoi Sang Lee
       徐忠信 Alan Chui Chung San
       钱月笙 Yuet Sang Chin
       韦弘 Hung Wei
       冯敬文 Ging Man Fung
       西瓜刨 Gwa-pau Sai
       郝履仁 Li Jen Ho
       沈劳 Lao Shen
       卡萨伐 Casanova Wong
       王清河 Ching-Ho Wang
       韩国材 Kwok Choi Hon
       惠天赐 Austin Wai
       姜南 Nan Chiang
       小侯 Hou Hsia
       强汉 Chiang Han
       袁小田 Siu-tien Yuen
       邵逸夫 Run Run Shaw
       方逸华 Mona Fong
       陈勋奇 Frankie Chan
       黄岳泰 Arthur Wong
       李炎海 Yen Hai Li
       姜兴盛 Hsing-lung Chiang
       曹庄生 Johnson Tsao
       刘季友 Chi-Yu Liu
       吴绪清 Hsu-Ching Wu
       黄拔景 Huang Pa-Ching
       刘家良 Kar-Leung Lau
       唐伟成 Wilson Tong
       王永华 Yung-Hua Wang
       彭雁联 Yen-Lien Peng
◎标  签 邵氏 / 香港 / 刘家良 / 行动 / 刘家辉 / 功夫 / 香港电影 / 武侠
◎简  介

  清代时,广州一地的反清复明义士积极与台湾郑成功一脉联络,以图驱逐异族。义士段将军与何教员等报酬了救援反清同道,前后被广州将军天达弹压,何教员的门生刘裕德(刘家辉 饰)因积极介入反清,举家被天达手下鹰犬唐三要所害,刘裕德孤身逃走,历尽艰辛到达少林寺,希望可以习得少林功夫,救济磨难百姓,兼报家仇。当时少林寺设有三十五房,其中三十四房别离锻炼体力或拳脚兵器,法号三德的刘裕德天资过人,历经五年苦学,遍通三十四房,学成之际,刘裕德向方丈提出开设少林第三十六房,旨在采取俗家门生,传布少林武学。刘裕德离乡七年后重返广州,收洪熙官、陆阿采等青年为徒,与清廷鹰犬展开了连番苦战……                                    
                                本片获1978年亚洲影展最好行动结果奖。
  1. Video
  2. ID                                       : 1
  3. Format                                   : AVC
  4. Format/Info                              : Advanced Video Codec
  5. Format profile                           : [email protected]
  6. Format settings                          : CABAC / 5 Ref Frames
  7. Format settings, CABAC                   : Yes
  8. Format settings, Reference frames        : 5 frames
  9. Codec ID                                 : V_MPEG4/ISO/AVC
  10. Duration                                 : 1 h 55 min
  11. Bit rate                                 : 17.6 Mb/s
  12. Width                                    : 1 920 pixels
  13. Height                                   : 816 pixels
  14. Display aspect ratio                     : 2.35:1
  15. Frame rate mode                          : Constant
  16. Frame rate                               : 23.976 (24000/1001/189150) FPS
  17. Color space                              : YUV
  18. Chroma subsampling                       : 4:2:0
  19. Bit depth                                : 8 bits
  20. Scan type                                : Progressive
  21. Bits/(Pixel*Frame)                       : 0.468
  22. Stream size                              : 14.2 GiB (95%)
  23. Writing library                          : x264 core 164 r3102 416e3eb
  24. Encoding settings                        : cabac=1 / ref=5 / deblock=1:-3:-3 / analyse=0x3:0x133 / me=umh / subme=10 / psy=1 / psy_rd=1.20:0.00 / mixed_ref=1 / me_range=24 / chroma_me=1 / trellis=2 / 8x8dct=1 / cqm=0 / deadzone=21,11 / fast_pskip=0 / chroma_qp_offset=-2 / threads=24 / lookahead_threads=4 / sliced_threads=0 / nr=0 / decimate=0 / interlaced=0 / bluray_compat=0 / constrained_intra=0 / bframes=8 / b_pyramid=2 / b_adapt=2 / b_bias=0 / direct=3 / weightb=1 / open_gop=0 / weightp=2 / keyint=250 / keyint_min=23 / scenecut=40 / intra_refresh=0 / rc_lookahead=60 / rc=crf / mbtree=1 / crf=18.0 / qcomp=0.60 / qpmin=0 / qpmax=69 / qpstep=4 / ip_ratio=1.40 / aq=3:0.90
  25. Default                                  : Yes
  26. Forced                                   : No
  27. Color range                              : Limited
  28. Matrix coefficients                      : BT.709

  29. Audio #1
  30. ID                                       : 2
  31. Format                                   : FLAC
  32. Format/Info                              : Free Lossless Audio Codec
  33. Codec ID                                 : A_FLAC
  34. Duration                                 : 1 h 55 min
  35. Bit rate mode                            : Variable
  36. Bit rate                                 : 246 kb/s
  37. Channel(s)                               : 1 channel
  38. Channel layout                           : C
  39. Sampling rate                            : 48.0 kHz
  40. Frame rate                               : 11.719 FPS (4096 SPF)
  41. Bit depth                                : 16 bits
  42. Compression mode                         : Lossless
  43. Stream size                              : 204 MiB (1%)
  44. Title                                    : Mandarin
  45. Writing library                          : libFLAC 1.3.3 (UTC 2019-08-04)
  46. Language                                 : Chinese
  47. Default                                  : Yes
  48. Forced                                   : No

  49. Audio #2
  50. ID                                       : 3
  51. Format                                   : FLAC
  52. Format/Info                              : Free Lossless Audio Codec
  53. Codec ID                                 : A_FLAC
  54. Duration                                 : 1 h 55 min
  55. Bit rate mode                            : Variable
  56. Bit rate                                 : 211 kb/s
  57. Channel(s)                               : 1 channel
  58. Channel layout                           : C
  59. Sampling rate                            : 48.0 kHz
  60. Frame rate                               : 11.719 FPS (4096 SPF)
  61. Bit depth                                : 16 bits
  62. Compression mode                         : Lossless
  63. Stream size                              : 174 MiB (1%)
  64. Writing library                          : libFLAC 1.3.3 (UTC 2019-08-04)
  65. Language                                 : English
  66. Default                                  : No
  67. Forced                                   : No

  68. Audio #3
  69. ID                                       : 4
  70. Format                                   : FLAC
  71. Format/Info                              : Free Lossless Audio Codec
  72. Codec ID                                 : A_FLAC
  73. Duration                                 : 1 h 55 min
  74. Bit rate mode                            : Variable
  75. Bit rate                                 : 242 kb/s
  76. Channel(s)                               : 1 channel
  77. Channel layout                           : C
  78. Sampling rate                            : 48.0 kHz
  79. Frame rate                               : 11.719 FPS (4096 SPF)
  80. Bit depth                                : 16 bits
  81. Compression mode                         : Lossless
  82. Stream size                              : 201 MiB (1%)
  83. Title                                    : Cantonese
  84. Writing library                          : libFLAC 1.3.3 (UTC 2019-08-04)
  85. Language                                 : Chinese
  86. Default                                  : No
  87. Forced                                   : No

  88. Audio #4
  89. ID                                       : 5
  90. Format                                   : AAC LC
  91. Format/Info                              : Advanced Audio Codec Low Complexity
  92. Codec ID                                 : A_AAC-2
  93. Duration                                 : 1 h 55 min
  94. Bit rate                                 : 96.0 kb/s
  95. Channel(s)                               : 2 channels
  96. Channel layout                           : L R
  97. Sampling rate                            : 48.0 kHz
  98. Frame rate                               : 46.875 FPS (1024 SPF)
  99. Compression mode                         : Lossy
  100. Delay relative to video                  : 20 ms
  101. Stream size                              : 80.5 MiB (1%)
  102. Title                                    : Commentary
  103. Language                                 : English
  104. Default                                  : No
  105. Forced                                   : No

  106. Audio #5
  107. ID                                       : 6
  108. Format                                   : AAC LC
  109. Format/Info                              : Advanced Audio Codec Low Complexity
  110. Codec ID                                 : A_AAC-2
  111. Duration                                 : 1 h 55 min
  112. Bit rate                                 : 92.2 kb/s
  113. Channel(s)                               : 2 channels
  114. Channel layout                           : L R
  115. Sampling rate                            : 48.0 kHz
  116. Frame rate                               : 46.875 FPS (1024 SPF)
  117. Compression mode                         : Lossy
  118. Delay relative to video                  : 20 ms
  119. Stream size                              : 76.4 MiB (0%)
  120. Title                                    : Commentary
  121. Language                                 : English
  122. Default                                  : No
  123. Forced                                   : No

  124. Text #1
  125. ID                                       : 7
  126. Format                                   : UTF-8
  127. Codec ID                                 : S_TEXT/UTF8
  128. Codec ID/Info                            : UTF-8 Plain Text
  129. Duration                                 : 1 h 55 min
  130. Bit rate                                 : 29 b/s
  131. Count of elements                        : 735
  132. Stream size                              : 25.1 KiB (0%)
  133. Title                                    : English (Forced)
  134. Language                                 : English
  135. Default                                  : Yes
  136. Forced                                   : Yes

  137. Text #2
  138. ID                                       : 8
  139. Format                                   : PGS
  140. Muxing mode                              : zlib
  141. Codec ID                                 : S_HDMV/PGS
  142. Codec ID/Info                            : Picture based subtitle format used on BDs/HD-DVDs
  143. Duration                                 : 1 h 55 min
  144. Bit rate                                 : 17.5 kb/s
  145. Count of elements                        : 1836
  146. Stream size                              : 14.4 MiB (0%)
  147. Title                                    : SDH
  148. Language                                 : English
  149. Default                                  : No
  150. Forced                                   : No

  151. Text #3
  152. ID                                       : 9
  153. Format                                   : PGS
  154. Muxing mode                              : zlib
  155. Codec ID                                 : S_HDMV/PGS
  156. Codec ID/Info                            : Picture based subtitle format used on BDs/HD-DVDs
  157. Duration                                 : 1 h 55 min
  158. Bit rate                                 : 16.9 kb/s
  159. Count of elements                        : 1472
  160. Stream size                              : 14.0 MiB (0%)
  161. Language                                 : English
  162. Default                                  : No
  163. Forced                                   : No

  164. Text #4
  165. ID                                       : 10
  166. Format                                   : PGS
  167. Muxing mode                              : zlib
  168. Codec ID                                 : S_HDMV/PGS
  169. Codec ID/Info                            : Picture based subtitle format used on BDs/HD-DVDs
  170. Duration                                 : 1 h 54 min
  171. Bit rate                                 : 741 b/s
  172. Count of elements                        : 60
  173. Stream size                              : 622 KiB (0%)
  174. Language                                 : English
  175. Default                                  : No
  176. Forced                                   : No

  177. Menu
  178. 00:00:00.000                             : en:Chapter 01
  179. 00:08:48.403                             : en:Chapter 02
  180. 00:18:36.949                             : en:Chapter 03
  181. 00:30:53.810                             : en:Chapter 04
  182. 00:38:23.843                             : en:Chapter 05
  183. 00:47:14.290                             : en:Chapter 06
  184. 01:00:24.037                             : en:Chapter 07
  185. 01:06:36.618                             : en:Chapter 08
  186. 01:17:16.632                             : en:Chapter 09
  187. 01:27:44.968                             : en:Chapter 10
  188. 01:39:50.860                             : en:Chapter 11
  189. 01:48:40.305                             : en:Chapter 12
  190. 01:55:52.946                             : en:Chapter 13
复制代码




                                       
                                       

                                       
                                       
                                       




回复

使用道具 举报

蓝光币
54
发表于 2022-12-22 07:38:11 来自手机 | 显示全部楼层
经典电影 谢谢分享
回复 支持 反对

使用道具 举报

蓝光币
9
发表于 2022-12-22 09:23:07 | 显示全部楼层

经典电影 谢谢分享
回复 支持 反对

使用道具 举报

蓝光币
799
发表于 2022-12-22 10:23:16 | 显示全部楼层

找了很久,终于找到了~
回复 支持 反对

使用道具 举报

蓝光币
231
发表于 2022-12-22 10:52:54 | 显示全部楼层
楼主发贴辛苦了,谢谢楼主分享!我觉得蓝光电影网是注册对了!
回复 支持 反对

使用道具 举报

蓝光币
201
发表于 2022-12-22 14:48:22 | 显示全部楼层
感谢楼主,再发精品
回复 支持 反对

使用道具 举报

蓝光币
666
发表于 2022-12-22 16:20:23 | 显示全部楼层

我看不错噢 谢谢楼主!蓝光电影网越来越好!
回复 支持 反对

使用道具 举报

蓝光币
231
发表于 2022-12-23 11:59:23 | 显示全部楼层
楼主发贴辛苦了,谢谢楼主分享!我觉得蓝光电影网是注册对了!
回复 支持 反对

使用道具 举报

蓝光币
378
发表于 2022-12-23 13:08:15 | 显示全部楼层
谢谢楼主分享!
回复 支持 反对

使用道具 举报

蓝光币
16
发表于 2022-12-23 19:53:15 | 显示全部楼层
非常感谢
回复

使用道具 举报

懒得打字嘛,点击右侧快捷回复 【右侧内容,后台自定义】
您需要登录后才可以回帖 登录 | 立即加入

本版积分规则

Archiver|小黑屋| 蓝光电影网 |网站地图

Copyright © 2021 Comsenz Inc. Powered by 蓝光电影网

蓝光电影网

本站内容由用户自主分享和转载自互联网,转载目的在于传递更多信息,并不代表本网赞同其观点和对其真实性负责。

如有侵权、违反国家法律政策行为,请联系我们,我们会第一时间及时清除和处理!

举报反馈邮箱:[email protected]

快速回复 返回顶部 返回列表