找回密码

蓝光电影网

查看: 27|回复: 0

[剧情] 金秋:与时间赛跑.Autumn.Gold.2010.GERMAN.1080p.NF.WEBRip.DDP2.0.x264-PTerWEB 3.63GB

[复制链接]
蓝光币
1084
发表于 2023-1-8 00:47:34 | 显示全部楼层 |阅读模式


◎标  题 金秋:与时候赛跑
◎译  名 金秋 / Autumn Gold
◎片  名 Herbstgold
◎年  代 2010
◎产  地 德国 / 奥天时
◎类  别 剧情 / 记载片 / 列传 / 活动
◎语  言 德语 / 捷克语 / 瑞典语 / 意大利语 / 英语
◎上映日期 2010
◎IMDb评分 7.5/10 (245人评价)
◎IMDb链接 https://www.imdb.com/title/tt1653668/
◎豆瓣评分 9.2/10 (47人评价)
◎豆瓣链接 https://movie.douban.com/subject/5152067/
◎片  长 94 分钟
◎演  员 Andy Baum Andy Baum
       Jürgen Winkelblech Jürgen Winkelblech
◎简  介
  来自全球的五位大龄运带动都有一个方针——加入田径天下大师赛。最大的应战在于这些运带动的年龄均在80岁至100岁之间——与时候和日渐虚弱的自己的角逐。
  1. Video
  2. ID                                       : 1
  3. Format                                   : AVC
  4. Format/Info                              : Advanced Video Codec
  5. Format profile                           : [email protected]
  6. Format settings                          : CABAC / 4 Ref Frames
  7. Format settings, CABAC                   : Yes
  8. Format settings, Reference frames        : 4 frames
  9. Codec ID                                 : V_MPEG4/ISO/AVC
  10. Duration                                 : 1 h 34 min
  11. Bit rate mode                            : Variable
  12. Bit rate                                 : 5 367 kb/s
  13. Maximum bit rate                         : 20.0 Mb/s
  14. Width                                    : 1 920 pixels
  15. Height                                   : 1 080 pixels
  16. Display aspect ratio                     : 16:9
  17. Frame rate mode                          : Constant
  18. Frame rate                               : 25.000 FPS
  19. Color space                              : YUV
  20. Chroma subsampling                       : 4:2:0
  21. Bit depth                                : 8 bits
  22. Scan type                                : Progressive
  23. Bits/(Pixel*Frame)                       : 0.104
  24. Stream size                              : 3.55 GiB (98%)
  25. Writing library                          : x264 core 148 r2722 1b0121b
  26. Encoding settings                        : cabac=1 / ref=4 / deblock=1:0:0 / analyse=0x3:0x111 / me=umh / subme=10 / psy=1 / psy_rd=1.00:0.00 / mixed_ref=1 / me_range=120 / chroma_me=1 / trellis=2 / 8x8dct=1 / cqm=0 / deadzone=21,11 / fast_pskip=1 / chroma_qp_offset=-2 / threads=6 / lookahead_threads=1 / sliced_threads=0 / nr=0 / decimate=1 / interlaced=0 / bluray_compat=0 / stitchable=1 / constrained_intra=0 / bframes=16 / b_pyramid=2 / b_adapt=2 / b_bias=0 / direct=3 / weightb=1 / open_gop=0 / weightp=2 / keyint=250 / keyint_min=126 / scenecut=0 / intra_refresh=0 / rc_lookahead=250 / rc=crf / mbtree=1 / crf=20.0 / qcomp=0.50 / qpmin=6 / qpmax=51 / qpstep=4 / vbv_maxrate=20000 / vbv_bufsize=25000 / crf_max=0.0 / nal_hrd=vbr / filler=0 / ip_ratio=1.40 / aq=1:0.80
  27. Language                                 : German
  28. Default                                  : Yes
  29. Forced                                   : No
  30. Audio
  31. ID                                       : 2
  32. Format                                   : E-AC-3
  33. Format/Info                              : Enhanced AC-3
  34. Commercial name                          : Dolby Digital Plus
  35. Codec ID                                 : A_EAC3
  36. Duration                                 : 1 h 34 min
  37. Bit rate mode                            : Constant
  38. Bit rate                                 : 128 kb/s
  39. Channel(s)                               : 2 channels
  40. Channel layout                           : L R
  41. Sampling rate                            : 48.0 kHz
  42. Frame rate                               : 31.250 FPS (1536 SPF)
  43. Compression mode                         : Lossy
  44. Stream size                              : 86.6 MiB (2%)
  45. Language                                 : German
  46. Service kind                             : Complete Main
  47. Default                                  : Yes
  48. Forced                                   : No
  49. Text #1
  50. ID                                       : 3
  51. Format                                   : UTF-8
  52. Codec ID                                 : S_TEXT/UTF8
  53. Codec ID/Info                            : UTF-8 Plain Text
  54. Duration                                 : 1 h 32 min
  55. Bit rate                                 : 44 b/s
  56. Frame rate                               : 0.159 FPS
  57. Count of elements                        : 886
  58. Stream size                              : 30.2 KiB (0%)
  59. Title                                    : SDH
  60. Language                                 : German
  61. Default                                  : No
  62. Forced                                   : No
  63. Text #2
  64. ID                                       : 4
  65. Format                                   : UTF-8
  66. Codec ID                                 : S_TEXT/UTF8
  67. Codec ID/Info                            : UTF-8 Plain Text
  68. Duration                                 : 1 h 30 min
  69. Bit rate                                 : 27 b/s
  70. Frame rate                               : 0.110 FPS
  71. Count of elements                        : 600
  72. Stream size                              : 18.1 KiB (0%)
  73. Language                                 : Czech
  74. Default                                  : No
  75. Forced                                   : No
  76. Text #3
  77. ID                                       : 5
  78. Format                                   : UTF-8
  79. Codec ID                                 : S_TEXT/UTF8
  80. Codec ID/Info                            : UTF-8 Plain Text
  81. Duration                                 : 1 h 33 min
  82. Bit rate                                 : 36 b/s
  83. Frame rate                               : 0.139 FPS
  84. Count of elements                        : 778
  85. Stream size                              : 24.7 KiB (0%)
  86. Language                                 : Danish
  87. Default                                  : No
  88. Forced                                   : No
  89. Text #4
  90. ID                                       : 6
  91. Format                                   : UTF-8
  92. Codec ID                                 : S_TEXT/UTF8
  93. Codec ID/Info                            : UTF-8 Plain Text
  94. Duration                                 : 1 h 30 min
  95. Bit rate                                 : 33 b/s
  96. Frame rate                               : 0.132 FPS
  97. Count of elements                        : 718
  98. Stream size                              : 22.0 KiB (0%)
  99. Language                                 : English
  100. Default                                  : No
  101. Forced                                   : No
  102. Text #5
  103. ID                                       : 7
  104. Format                                   : UTF-8
  105. Codec ID                                 : S_TEXT/UTF8
  106. Codec ID/Info                            : UTF-8 Plain Text
  107. Duration                                 : 1 h 33 min
  108. Bit rate                                 : 36 b/s
  109. Frame rate                               : 0.142 FPS
  110. Count of elements                        : 795
  111. Stream size                              : 24.8 KiB (0%)
  112. Title                                    : Europe
  113. Language                                 : Spanish (150)
  114. Default                                  : No
  115. Forced                                   : No
  116. Text #6
  117. ID                                       : 8
  118. Format                                   : UTF-8
  119. Codec ID                                 : S_TEXT/UTF8
  120. Codec ID/Info                            : UTF-8 Plain Text
  121. Duration                                 : 1 h 33 min
  122. Bit rate                                 : 40 b/s
  123. Frame rate                               : 0.142 FPS
  124. Count of elements                        : 797
  125. Stream size                              : 28.0 KiB (0%)
  126. Language                                 : French
  127. Default                                  : No
  128. Forced                                   : No
复制代码











回复

使用道具 举报

懒得打字嘛,点击右侧快捷回复 【右侧内容,后台自定义】
您需要登录后才可以回帖 登录 | 立即加入

本版积分规则

Archiver|小黑屋| 蓝光电影网 |网站地图

Copyright © 2021 Comsenz Inc. Powered by 蓝光电影网

蓝光电影网

本站内容由用户自主分享和转载自互联网,转载目的在于传递更多信息,并不代表本网赞同其观点和对其真实性负责。

如有侵权、违反国家法律政策行为,请联系我们,我们会第一时间及时清除和处理!

举报反馈邮箱:[email protected]

快速回复 返回顶部 返回列表