找回密码

蓝光电影网

查看: 399|回复: 0

[剧情] 静水城/斯蒂尔沃特 Stillwater.2021.720p.BluRay.x264.DTS-MT 8.37GB

[复制链接]
蓝光币
730
发表于 2021-10-22 11:02:09 | 显示全部楼层 |阅读模式


◎译  名 静水城/斯蒂尔沃特/止水/静水
◎片  名 Stillwater
◎年  代 2021
◎产  地 美国
◎类  别 剧情 / 惊悚 / 犯罪
◎语  言 英语
◎上映日期 2021-07-08(戛纳电影节) / 2021-07-30(美国)
◎豆瓣评分 7.1/10 from 7785 users
◎豆瓣链接 https://movie.douban.com/subject/34614665/
◎片  长 139分钟
◎导  演 汤姆·麦卡锡 Tom McCarthy
◎编  剧 汤姆·麦卡锡 Tom McCarthy / 马库斯·辛奇 Marcus Hinchey / 托马斯·彼得葛恩 Thomas Bidegain / 诺亚·德勃雷 Noé Debré
◎主  演 马特·达蒙 Matt Damon
       卡米尔·科坦 Camille Cottin
       阿比盖尔·布雷斯林 Abigail Breslin
       利鲁·肖沃 Lilou Siauvaud
       狄安娜·杜纳甘 Deanna Dunagan
       伊迪尔·阿祖格利 Idir Azougli
       安娜·勒尼 Anne Le Ny
       茂萨·马斯克里 Moussa Maaskri
       伊莎贝尔·塔纳克 Isabelle Tanakil
       奈德拉·阿亚迪 Naidra Ayadi
       吉尔伯特·特拉尼亚 Gilbert Traina
       威廉·纳迪兰 William Nadylam
       沙扎德·拉蒂夫 Shazad Latif
       米歇尔?邦波 Michel Bompoil
       莎拉·布鲁克斯 Sarah Brooks
       埃里克·斯达克 Eric Starkey
       罗伯特·皮特斯 Robert Peters
       Olivier Cruveiller Olivier Cruveiller
◎标  签 剧情 | 美国 | 犯罪 | 2021 | 悬疑 | 欧美 | 电影 | 惊悚
◎简  介


  影片围绕一个来自俄克拉荷马州的美国石油钻井平台钻工比尔(达蒙饰)展开。他不能不前往马赛,造访他久未碰面却锒铛入狱的女儿(布雷斯林饰),他的女儿坚称并没有犯下谋杀罪。面临说话的障碍、文化的差别,以及复杂的法令制度,比尔决意孤注一掷拯救他的女儿。而在这个进程中,他与一位当地的女性和她的小女儿建立了友谊,也起头了小我的摸索之旅,并获得了更大的归属感。
  1. Video
  2. ID                                       : 1
  3. Format                                   : AVC
  4. Format/Info                              : Advanced Video Codec
  5. Format profile                           : [email protected]
  6. Format settings                          : CABAC / 9 Ref Frames
  7. Format settings, CABAC                   : Yes
  8. Format settings, Reference frames        : 9 frames
  9. Codec ID                                 : V_MPEG4/ISO/AVC
  10. Duration                                 : 2 h 18 min
  11. Bit rate                                 : 7 110 kb/s
  12. Width                                    : 1 280 pixels
  13. Height                                   : 694 pixels
  14. Display aspect ratio                     : 1.85:1
  15. Frame rate mode                          : Constant
  16. Frame rate                               : 23.976 (24000/1001/189150) FPS
  17. Color space                              : YUV
  18. Chroma subsampling                       : 4:2:0
  19. Bit depth                                : 8 bits
  20. Scan type                                : Progressive
  21. Bits/(Pixel*Frame)                       : 0.334
  22. Stream size                              : 6.90 GiB (82%)
  23. Writing library                          : x264 core 157 r2938 2b00a84 [email protected] Mod
  24. Encoding settings                        : cabac=1 / ref=9 / deblock=1:-3:-3 / analyse=0x3:0x133 / me=umh / subme=10 / psy=1 / psy_rd=1.05:0.00 / mixed_ref=1 / me_range=32 / chroma_me=1 / trellis=2 / 8x8dct=1 / cqm=0 / deadzone=21,11 / fast_pskip=0 / chroma_qp_offset=-2 / threads=12 / lookahead_threads=2 / sliced_threads=0 / nr=0 / decimate=0 / interlaced=0 / bluray_compat=0 / constrained_intra=0 / bframes=8 / b_pyramid=2 / b_adapt=2 / b_bias=0 / direct=3 / weightb=1 / open_gop=0 / weightp=2 / keyint=250 / keyint_min=24 / scenecut=40 / intra_refresh=0 / rc_lookahead=250 / rc=crf / mbtree=0 / crf=16.8 / qcomp=0.60 / qpmin=0 / qpmax=69 / qpstep=4 / vbv_maxrate=62500 / vbv_bufsize=78125 / crf_max=0.0 / nal_hrd=none / filler=0 / ip_ratio=1.30 / pb_ratio=1.20 / aq=3:0.80
  25. Language                                 : English
  26. Default                                  : Yes
  27. Forced                                   : No
  28. Color range                              : Limited
  29. Color primaries                          : BT.709
  30. Matrix coefficients                      : BT.709
  31. Audio
  32. ID                                       : 2
  33. Format                                   : DTS
  34. Format/Info                              : Digital Theater Systems
  35. Codec ID                                 : A_DTS
  36. Duration                                 : 2 h 18 min
  37. Bit rate mode                            : Constant
  38. Bit rate                                 : 1 509 kb/s
  39. Channel(s)                               : 6 channels
  40. Channel layout                           : C L R Ls Rs LFE
  41. Sampling rate                            : 48.0 kHz
  42. Frame rate                               : 93.750 FPS (512 SPF)
  43. Bit depth                                : 24 bits
  44. Compression mode                         : Lossy
  45. Stream size                              : 1.46 GiB (18%)
  46. Language                                 : English
  47. Default                                  : Yes
  48. Forced                                   : No
  49. Text
  50. ID                                       : 3
  51. Format                                   : UTF-8
  52. Codec ID                                 : S_TEXT/UTF8
  53. Codec ID/Info                            : UTF-8 Plain Text
  54. Duration                                 : 2 h 9 min
  55. Bit rate                                 : 41 b/s
  56. Count of elements                        : 1245
  57. Stream size                              : 39.3 KiB (0%)
  58. Title                                    : SRT
  59. Language                                 : English
  60. Default                                  : Yes
  61. Forced                                   : No
  62. Menu
  63. 00:00:00.000                             : en:Chapter 01
  64. 00:07:50.428                             : en:Chapter 02
  65. 00:12:56.943                             : en:Chapter 03
  66. 00:22:17.002                             : en:Chapter 04
  67. 00:32:23.859                             : en:Chapter 05
  68. 00:37:45.555                             : en:Chapter 06
  69. 00:44:02.390                             : en:Chapter 07
  70. 00:49:05.526                             : en:Chapter 08
  71. 00:57:51.051                             : en:Chapter 09
  72. 01:03:19.212                             : en:Chapter 10
  73. 01:08:21.723                             : en:Chapter 11
  74. 01:16:05.936                             : en:Chapter 12
  75. 01:25:03.974                             : en:Chapter 13
  76. 01:32:16.281                             : en:Chapter 14
  77. 01:39:18.911                             : en:Chapter 15
  78. 01:45:27.196                             : en:Chapter 16
  79. 01:51:43.697                             : en:Chapter 17
  80. 02:00:57.125                             : en:Chapter 18
  81. 02:05:31.399                             : en:Chapter 19
  82. 02:12:08.504                             : en:Chapter 20
复制代码







                                       
                                       

                                       
                                       
                                       




回复

使用道具 举报

懒得打字嘛,点击右侧快捷回复 【右侧内容,后台自定义】
您需要登录后才可以回帖 登录 | 立即加入

本版积分规则

Archiver|小黑屋| 蓝光电影网 |网站地图

Copyright © 2021 Comsenz Inc. Powered by 蓝光电影网

蓝光电影网

本站内容由用户自主分享和转载自互联网,转载目的在于传递更多信息,并不代表本网赞同其观点和对其真实性负责。

如有侵权、违反国家法律政策行为,请联系我们,我们会第一时间及时清除和处理!

举报反馈邮箱:[email protected]

快速回复 返回顶部 返回列表