找回密码

蓝光电影网

查看: 376|回复: 0

[剧情] 触礁/岩石上 On.the.Rocks.2020.1080p.BluRay.x264.DTS-HD.MA.5.1-MT 16.04GB

[复制链接]
蓝光币
682
发表于 2021-10-22 11:06:41 | 显示全部楼层 |阅读模式


◎译  名 触礁/岩石上
◎片  名 On the Rocks
◎年  代 2020
◎产  地 美国
◎类  别 剧情 / 笑剧 / 冒险
◎语  言 英语
◎上映日期 2020-09-22(纽约电影节) / 2020-10-23(美国)
◎豆瓣评分 6.6/10 from 2744 users
◎豆瓣链接 https://movie.douban.com/subject/30432861/
◎片  长 97分钟
◎导  演 索菲亚·科波拉 Sofia Coppola
◎编  剧 索菲亚·科波拉 Sofia Coppola
◎主  演 比尔·默瑞 Bill Murray
       拉什达·琼斯 Rashida Jones
       马龙·韦恩斯 Marlon Wayans
       珍妮·斯蕾特 Jenny Slate
       杰西卡·亨维克 Jessica Henwick
       芭芭拉·贝恩 Barbara Bain
       纳迪雅·达珍妮 Nadia Dajani
       朱尔斯·威尔科克斯 Jules Willcox
       娜缇娅·蒂恩 Natia Dune
       桃乐丝·麦卡锡 Doris McCarthy
       南希·欧泽力 Nancy Ozelli
       Mike Keller Mike Keller
       华特鲁迪丝·巴克 Waltrudis Buck
       西蒙娜·拉马德里德 Ximena Lamadrid
◎标  签 美国 | 索菲亚·科波拉 | 2020 | 笑剧 | 剧情 | SofiaCoppola | BillMurray | 美国电影
◎简  介


  索菲亚·科波拉将执导新片《触礁》(On the Rocks),比尔·莫瑞、拉什达·琼斯主演,这将是苹果和A24合作的第一部电影,下月开拍。
  
  剧本由科波拉编写,报告一个年轻妈妈和她有豪杰色彩的父亲重新联系,在纽约展开一段冒险。
◎获奖情况
  第78届金球奖 ?(2021)
  电影类最好男配角(提名) 比尔·默瑞
  
  第71届美国剪辑工会奖 ?(2021)
  音乐/笑剧片最好剪辑(提名) 莎拉·弗拉克
  
  第26届美国批评家挑选电影奖 ?(2021)
  最好男配角(提名) 比尔·默瑞
  最好笑剧片(提名)
  
  第25届金卫星奖 ?(2021)
  电影部分最好笑剧/音乐片(提名)
  电影部分笑剧/音乐片最好女配角(提名) 拉什达·琼斯
  电影部分最好男配角(提名) 比尔·默瑞
  
  第33届芝加哥影评人协会奖 ?(2020)
  最好男配角(提名) 比尔·默瑞
  
  第24届美国在线影评人协会奖 ?(2021)
  最好男配角(提名) 比尔·默瑞
  1. Video
  2. ID                                       : 1
  3. Format                                   : AVC
  4. Format/Info                              : Advanced Video Codec
  5. Format profile                           : [email protected]
  6. Format settings                          : CABAC / 4 Ref Frames
  7. Format settings, CABAC                   : Yes
  8. Format settings, Reference frames        : 4 frames
  9. Codec ID                                 : V_MPEG4/ISO/AVC
  10. Duration                                 : 1 h 36 min
  11. Bit rate                                 : 20.3 Mb/s
  12. Width                                    : 1 920 pixels
  13. Height                                   : 1 038 pixels
  14. Display aspect ratio                     : 1.85:1
  15. Frame rate mode                          : Constant
  16. Frame rate                               : 23.976 (24000/1001/189150) FPS
  17. Color space                              : YUV
  18. Chroma subsampling                       : 4:2:0
  19. Bit depth                                : 8 bits
  20. Scan type                                : Progressive
  21. Bits/(Pixel*Frame)                       : 0.426
  22. Stream size                              : 13.8 GiB (86%)
  23. Writing library                          : x264 core 157 r2938 2b00a84 [email protected] Mod
  24. Encoding settings                        : cabac=1 / ref=4 / deblock=1:-3:-3 / analyse=0x3:0x133 / me=umh / subme=10 / psy=1 / psy_rd=1.05:0.00 / mixed_ref=1 / me_range=32 / chroma_me=1 / trellis=2 / 8x8dct=1 / cqm=0 / deadzone=21,11 / fast_pskip=0 / chroma_qp_offset=-2 / threads=12 / lookahead_threads=2 / sliced_threads=0 / nr=0 / decimate=0 / interlaced=0 / bluray_compat=0 / constrained_intra=0 / bframes=8 / b_pyramid=2 / b_adapt=2 / b_bias=0 / direct=3 / weightb=1 / open_gop=0 / weightp=2 / keyint=250 / keyint_min=24 / scenecut=40 / intra_refresh=0 / rc_lookahead=250 / rc=crf / mbtree=0 / crf=16.8 / qcomp=0.60 / qpmin=0 / qpmax=69 / qpstep=4 / vbv_maxrate=62500 / vbv_bufsize=78125 / crf_max=0.0 / nal_hrd=none / filler=0 / ip_ratio=1.30 / pb_ratio=1.20 / aq=3:0.80
  25. Language                                 : English
  26. Default                                  : Yes
  27. Forced                                   : No
  28. Color range                              : Limited
  29. Color primaries                          : BT.709
  30. Matrix coefficients                      : BT.709
  31. Audio
  32. ID                                       : 2
  33. Format                                   : DTS XLL
  34. Format/Info                              : Digital Theater Systems
  35. Commercial name                          : DTS-HD Master Audio
  36. Codec ID                                 : A_DTS
  37. Duration                                 : 1 h 36 min
  38. Bit rate mode                            : Variable
  39. Bit rate                                 : 3 342 kb/s
  40. Channel(s)                               : 6 channels
  41. Channel layout                           : C L R Ls Rs LFE
  42. Sampling rate                            : 48.0 kHz
  43. Frame rate                               : 93.750 FPS (512 SPF)
  44. Bit depth                                : 24 bits
  45. Compression mode                         : Lossless
  46. Stream size                              : 2.26 GiB (14%)
  47. Language                                 : English
  48. Default                                  : Yes
  49. Forced                                   : No
  50. Text #1
  51. ID                                       : 3
  52. Format                                   : UTF-8
  53. Codec ID                                 : S_TEXT/UTF8
  54. Codec ID/Info                            : UTF-8 Plain Text
  55. Duration                                 : 1 h 29 min
  56. Bit rate                                 : 70 b/s
  57. Count of elements                        : 1413
  58. Stream size                              : 46.0 KiB (0%)
  59. Title                                    : SRT
  60. Language                                 : English
  61. Default                                  : Yes
  62. Forced                                   : No
  63. Text #2
  64. ID                                       : 4
  65. Format                                   : PGS
  66. Muxing mode                              : zlib
  67. Codec ID                                 : S_HDMV/PGS
  68. Codec ID/Info                            : Picture based subtitle format used on BDs/HD-DVDs
  69. Duration                                 : 1 h 29 min
  70. Bit rate                                 : 48.3 kb/s
  71. Count of elements                        : 3176
  72. Stream size                              : 31.0 MiB (0%)
  73. Language                                 : English
  74. Default                                  : No
  75. Forced                                   : No
  76. Menu
  77. 00:00:00.000                             : en:Chapter 01
  78. 00:05:39.631                             : en:Chapter 02
  79. 00:13:43.906                             : en:Chapter 03
  80. 00:18:19.348                             : en:Chapter 04
  81. 00:26:25.125                             : en:Chapter 05
  82. 00:31:55.622                             : en:Chapter 06
  83. 00:37:44.012                             : en:Chapter 07
  84. 00:43:19.013                             : en:Chapter 08
  85. 00:48:05.758                             : en:Chapter 09
  86. 00:56:44.610                             : en:Chapter 10
  87. 00:59:28.857                             : en:Chapter 11
  88. 01:04:44.297                             : en:Chapter 12
  89. 01:08:22.724                             : en:Chapter 13
  90. 01:14:19.538                             : en:Chapter 14
  91. 01:22:09.049                             : en:Chapter 15
  92. 01:27:49.097                             : en:Chapter 16
复制代码







                                       
                                       

                                       
                                       
                                       




回复

使用道具 举报

懒得打字嘛,点击右侧快捷回复 【右侧内容,后台自定义】
您需要登录后才可以回帖 登录 | 立即加入

本版积分规则

Archiver|小黑屋| 蓝光电影网 |网站地图

Copyright © 2021 Comsenz Inc. Powered by 蓝光电影网

蓝光电影网

本站内容由用户自主分享和转载自互联网,转载目的在于传递更多信息,并不代表本网赞同其观点和对其真实性负责。

如有侵权、违反国家法律政策行为,请联系我们,我们会第一时间及时清除和处理!

举报反馈邮箱:[email protected]

快速回复 返回顶部 返回列表