找回密码

蓝光电影网

查看: 265|回复: 1

[惊悚] 屏住呼吸2/别呼吸2 Dont.Breathe.2.2021.720p.BluRay.x264-VETO 5.04GB

[复制链接]
蓝光币
730
发表于 2021-10-27 08:44:37 | 显示全部楼层 |阅读模式


◎译  名 屏住呼吸2/别呼吸2/临时停止呼吸2(台)/禁室杀戮2(港)
◎片  名 Don't Breathe 2
◎年  代 2021
◎产  地 美国,塞尔维亚
◎类  别 惊悚 / 可骇
◎语  言 英语
◎上映日期 2021-08-13(美国)
◎豆瓣评分 6.5/10 from 18144 users
◎豆瓣链接 https://movie.douban.com/subject/26915921/
◎片  长 98分钟
◎导  演 罗多·赛亚格斯 Rodo Sayagues
◎编  剧 费德·阿尔瓦雷兹 Fede Alvarez / 罗多·赛亚格斯 Rodo Sayagues
◎主  演 史蒂芬·朗 Stephen Lang
       布兰登·萨克斯顿 Brendan Sexton III
       马德琳·格雷斯 Madelyn Grace
       罗奇·威廉姆斯 Rocci Williams
       斯蒂芬妮·阿西拉 Stephanie Arcila
       鲍比·斯科菲尔德 Bobby Schofield
       戴安娜·巴尼科娃 Diaana Babnicova
       亚当·扬 Adam Young
       克里斯蒂安·泽吉亚 Christian Zagia
       罗恩·罗格尔 Ron Rogell
       菲奥娜·奥肖内西 Fiona O'Shaughnessy
◎标  签 惊悚 | 犯罪 | 美国 | 悬疑 | 2021 | 可骇 | 美国电影 | 电影
◎简  介


  《屏住呼吸1》编剧罗多·赛亚格斯执导,并同前作导演费德·阿尔瓦雷兹一路写剧本,史蒂芬·朗、罗奇·威廉姆斯、斯蒂芬妮·阿西拉、鲍比·斯科菲尔德、亚当·扬等主演。
  
  故事发生在最初致命的入室抢劫以后的几年,眼盲的退伍老兵诺曼过着安静的生活,直到曩昔的罪行起头找上他。
  1. Video
  2. ID                                       : 1
  3. Format                                   : AVC
  4. Format/Info                              : Advanced Video Codec
  5. Format profile                           : [email protected]
  6. Format settings                          : CABAC / 8 Ref Frames
  7. Format settings, CABAC                   : Yes
  8. Format settings, Reference frames        : 8 frames
  9. Codec ID                                 : V_MPEG4/ISO/AVC
  10. Duration                                 : 1 h 38 min
  11. Bit rate                                 : 6 174 kb/s
  12. Width                                    : 1 280 pixels
  13. Height                                   : 536 pixels
  14. Display aspect ratio                     : 2.40:1
  15. Frame rate mode                          : Constant
  16. Frame rate                               : 23.976 (24000/1001/189150) FPS
  17. Color space                              : YUV
  18. Chroma subsampling                       : 4:2:0
  19. Bit depth                                : 8 bits
  20. Scan type                                : Progressive
  21. Bits/(Pixel*Frame)                       : 0.375
  22. Stream size                              : 4.24 GiB (84%)
  23. Writing library                          : x264 core 164 r3075 66a5bc1
  24. Encoding settings                        : cabac=1 / ref=8 / deblock=1:-3:-3 / analyse=0x3:0x133 / me=umh / subme=9 / psy=1 / psy_rd=1.00:0.00 / mixed_ref=1 / me_range=16 / chroma_me=1 / trellis=2 / 8x8dct=1 / cqm=0 / deadzone=21,11 / fast_pskip=0 / chroma_qp_offset=-2 / threads=24 / lookahead_threads=2 / sliced_threads=0 / nr=0 / decimate=0 / interlaced=0 / bluray_compat=0 / constrained_intra=0 / bframes=3 / b_pyramid=2 / b_adapt=2 / b_bias=0 / direct=3 / weightb=1 / open_gop=0 / weightp=2 / keyint=250 / keyint_min=23 / scenecut=40 / intra_refresh=0 / rc=crf / mbtree=0 / crf=16.0 / qcomp=0.60 / qpmin=0 / qpmax=69 / qpstep=4 / ip_ratio=1.40 / pb_ratio=1.30 / aq=3:0.70
  25. Language                                 : English
  26. Default                                  : Yes
  27. Forced                                   : No
  28. Color range                              : Limited
  29. Matrix coefficients                      : BT.709

  30. Audio #1
  31. ID                                       : 2
  32. Format                                   : AC-3
  33. Format/Info                              : Audio Coding 3
  34. Commercial name                          : Dolby Digital
  35. Codec ID                                 : A_AC3
  36. Duration                                 : 1 h 38 min
  37. Bit rate mode                            : Constant
  38. Bit rate                                 : 640 kb/s
  39. Channel(s)                               : 6 channels
  40. Channel layout                           : L R C LFE Ls Rs
  41. Sampling rate                            : 48.0 kHz
  42. Frame rate                               : 31.250 FPS (1536 SPF)
  43. Compression mode                         : Lossy
  44. Stream size                              : 450 MiB (9%)
  45. Language                                 : English
  46. Service kind                             : Complete Main
  47. Default                                  : Yes
  48. Forced                                   : No

  49. Audio #2
  50. ID                                       : 3
  51. Format                                   : AAC LC
  52. Format/Info                              : Advanced Audio Codec Low Complexity
  53. Codec ID                                 : A_AAC-2
  54. Duration                                 : 1 h 38 min
  55. Bit rate                                 : 122 kb/s
  56. Channel(s)                               : 2 channels
  57. Channel layout                           : L R
  58. Sampling rate                            : 48.0 kHz
  59. Frame rate                               : 46.875 FPS (1024 SPF)
  60. Compression mode                         : Lossy
  61. Delay relative to video                  : 20 ms
  62. Stream size                              : 85.4 MiB (2%)
  63. Title                                    : English commentary with co-writer/director Rodo Sayagues
  64. Language                                 : English
  65. Default                                  : No
  66. Forced                                   : No

  67. Audio #3
  68. ID                                       : 4
  69. Format                                   : AAC LC
  70. Format/Info                              : Advanced Audio Codec Low Complexity
  71. Codec ID                                 : A_AAC-2
  72. Duration                                 : 1 h 38 min
  73. Bit rate                                 : 104 kb/s
  74. Channel(s)                               : 2 channels
  75. Channel layout                           : L R
  76. Sampling rate                            : 48.0 kHz
  77. Frame rate                               : 46.875 FPS (1024 SPF)
  78. Compression mode                         : Lossy
  79. Delay relative to video                  : 20 ms
  80. Stream size                              : 73.0 MiB (1%)
  81. Title                                    : Spanish commentary with co-writer/director Rodo Sayagues, co-writer/director Federico álvarez and director of photography Pedro Luque
  82. Language                                 : Spanish
  83. Default                                  : No
  84. Forced                                   : No

  85. Text #1
  86. ID                                       : 5
  87. Format                                   : UTF-8
  88. Codec ID                                 : S_TEXT/UTF8
  89. Codec ID/Info                            : UTF-8 Plain Text
  90. Duration                                 : 1 h 26 min
  91. Bit rate                                 : 15 b/s
  92. Count of elements                        : 493
  93. Stream size                              : 10.1 KiB (0%)
  94. Title                                    : English (SRT)
  95. Language                                 : English
  96. Default                                  : No
  97. Forced                                   : No

  98. Text #2
  99. ID                                       : 6
  100. Format                                   : UTF-8
  101. Codec ID                                 : S_TEXT/UTF8
  102. Codec ID/Info                            : UTF-8 Plain Text
  103. Duration                                 : 1 h 30 min
  104. Bit rate                                 : 23 b/s
  105. Count of elements                        : 732
  106. Stream size                              : 15.3 KiB (0%)
  107. Title                                    : English (SDH SRT)
  108. Language                                 : English
  109. Default                                  : No
  110. Forced                                   : No

  111. Text #3
  112. ID                                       : 7
  113. Format                                   : PGS
  114. Muxing mode                              : zlib
  115. Codec ID                                 : S_HDMV/PGS
  116. Codec ID/Info                            : Picture based subtitle format used on BDs/HD-DVDs
  117. Duration                                 : 1 h 26 min
  118. Bit rate                                 : 9 894 b/s
  119. Count of elements                        : 986
  120. Stream size                              : 6.15 MiB (0%)
  121. Title                                    : English
  122. Language                                 : English
  123. Default                                  : No
  124. Forced                                   : No

  125. Text #4
  126. ID                                       : 8
  127. Format                                   : PGS
  128. Muxing mode                              : zlib
  129. Codec ID                                 : S_HDMV/PGS
  130. Codec ID/Info                            : Picture based subtitle format used on BDs/HD-DVDs
  131. Duration                                 : 1 h 30 min
  132. Bit rate                                 : 14.9 kb/s
  133. Count of elements                        : 1466
  134. Stream size                              : 9.67 MiB (0%)
  135. Title                                    : English (SDH)
  136. Language                                 : English
  137. Default                                  : No
  138. Forced                                   : No

  139. Text #5
  140. ID                                       : 9
  141. Format                                   : PGS
  142. Muxing mode                              : zlib
  143. Codec ID                                 : S_HDMV/PGS
  144. Codec ID/Info                            : Picture based subtitle format used on BDs/HD-DVDs
  145. Duration                                 : 1 h 31 min
  146. Bit rate                                 : 37.5 kb/s
  147. Count of elements                        : 2317
  148. Stream size                              : 24.6 MiB (0%)
  149. Title                                    : English (Commentary 1)
  150. Language                                 : English
  151. Default                                  : No
  152. Forced                                   : No

  153. Text #6
  154. ID                                       : 10
  155. Format                                   : PGS
  156. Muxing mode                              : zlib
  157. Codec ID                                 : S_HDMV/PGS
  158. Codec ID/Info                            : Picture based subtitle format used on BDs/HD-DVDs
  159. Duration                                 : 1 h 31 min
  160. Bit rate                                 : 66.3 kb/s
  161. Count of elements                        : 3264
  162. Stream size                              : 43.3 MiB (1%)
  163. Title                                    : English (Commentary 2)
  164. Language                                 : English
  165. Default                                  : No
  166. Forced                                   : No

  167. Text #7
  168. ID                                       : 11
  169. Format                                   : PGS
  170. Muxing mode                              : zlib
  171. Codec ID                                 : S_HDMV/PGS
  172. Codec ID/Info                            : Picture based subtitle format used on BDs/HD-DVDs
  173. Duration                                 : 1 h 36 min
  174. Bit rate                                 : 8 093 b/s
  175. Count of elements                        : 846
  176. Stream size                              : 5.57 MiB (0%)
  177. Title                                    : French
  178. Language                                 : French
  179. Default                                  : No
  180. Forced                                   : No

  181. Text #8
  182. ID                                       : 12
  183. Format                                   : PGS
  184. Muxing mode                              : zlib
  185. Codec ID                                 : S_HDMV/PGS
  186. Codec ID/Info                            : Picture based subtitle format used on BDs/HD-DVDs
  187. Duration                                 : 1 h 36 min
  188. Bit rate                                 : 9 795 b/s
  189. Count of elements                        : 906
  190. Stream size                              : 6.74 MiB (0%)
  191. Title                                    : Indonesian
  192. Language                                 : Indonesian
  193. Default                                  : No
  194. Forced                                   : No

  195. Text #9
  196. ID                                       : 13
  197. Format                                   : PGS
  198. Muxing mode                              : zlib
  199. Codec ID                                 : S_HDMV/PGS
  200. Codec ID/Info                            : Picture based subtitle format used on BDs/HD-DVDs
  201. Duration                                 : 1 h 36 min
  202. Bit rate                                 : 10.4 kb/s
  203. Count of elements                        : 910
  204. Stream size                              : 7.16 MiB (0%)
  205. Title                                    : Malay
  206. Language                                 : Malay
  207. Default                                  : No
  208. Forced                                   : No

  209. Text #10
  210. ID                                       : 14
  211. Format                                   : PGS
  212. Muxing mode                              : zlib
  213. Codec ID                                 : S_HDMV/PGS
  214. Codec ID/Info                            : Picture based subtitle format used on BDs/HD-DVDs
  215. Duration                                 : 1 h 36 min
  216. Bit rate                                 : 7 309 b/s
  217. Count of elements                        : 924
  218. Stream size                              : 5.03 MiB (0%)
  219. Title                                    : Korean
  220. Language                                 : Korean
  221. Default                                  : No
  222. Forced                                   : No

  223. Text #11
  224. ID                                       : 15
  225. Format                                   : PGS
  226. Muxing mode                              : zlib
  227. Codec ID                                 : S_HDMV/PGS
  228. Codec ID/Info                            : Picture based subtitle format used on BDs/HD-DVDs
  229. Duration                                 : 1 h 31 min
  230. Bit rate                                 : 26.3 kb/s
  231. Count of elements                        : 2050
  232. Stream size                              : 17.2 MiB (0%)
  233. Title                                    : Korean (Commentary 1)
  234. Language                                 : Korean
  235. Default                                  : No
  236. Forced                                   : No

  237. Text #12
  238. ID                                       : 16
  239. Format                                   : PGS
  240. Muxing mode                              : zlib
  241. Codec ID                                 : S_HDMV/PGS
  242. Codec ID/Info                            : Picture based subtitle format used on BDs/HD-DVDs
  243. Duration                                 : 1 h 30 min
  244. Bit rate                                 : 46.1 kb/s
  245. Count of elements                        : 3190
  246. Stream size                              : 29.9 MiB (1%)
  247. Title                                    : Korean (Commentary 2)
  248. Language                                 : Korean
  249. Default                                  : No
  250. Forced                                   : No

  251. Text #13
  252. ID                                       : 17
  253. Format                                   : PGS
  254. Muxing mode                              : zlib
  255. Codec ID                                 : S_HDMV/PGS
  256. Codec ID/Info                            : Picture based subtitle format used on BDs/HD-DVDs
  257. Duration                                 : 1 h 36 min
  258. Bit rate                                 : 9 196 b/s
  259. Count of elements                        : 890
  260. Stream size                              : 6.33 MiB (0%)
  261. Title                                    : Portuguese
  262. Language                                 : Portuguese
  263. Default                                  : No
  264. Forced                                   : No

  265. Text #14
  266. ID                                       : 18
  267. Format                                   : PGS
  268. Muxing mode                              : zlib
  269. Codec ID                                 : S_HDMV/PGS
  270. Codec ID/Info                            : Picture based subtitle format used on BDs/HD-DVDs
  271. Duration                                 : 1 h 31 min
  272. Bit rate                                 : 32.5 kb/s
  273. Count of elements                        : 1980
  274. Stream size                              : 21.3 MiB (0%)
  275. Title                                    : Portuguese (Commentary 1)
  276. Language                                 : Portuguese
  277. Default                                  : No
  278. Forced                                   : No

  279. Text #15
  280. ID                                       : 19
  281. Format                                   : PGS
  282. Muxing mode                              : zlib
  283. Codec ID                                 : S_HDMV/PGS
  284. Codec ID/Info                            : Picture based subtitle format used on BDs/HD-DVDs
  285. Duration                                 : 1 h 30 min
  286. Bit rate                                 : 53.2 kb/s
  287. Count of elements                        : 3105
  288. Stream size                              : 34.6 MiB (1%)
  289. Title                                    : Portuguese (Commentary 2)
  290. Language                                 : Portuguese
  291. Default                                  : No
  292. Forced                                   : No

  293. Text #16
  294. ID                                       : 20
  295. Format                                   : PGS
  296. Muxing mode                              : zlib
  297. Codec ID                                 : S_HDMV/PGS
  298. Codec ID/Info                            : Picture based subtitle format used on BDs/HD-DVDs
  299. Duration                                 : 1 h 36 min
  300. Bit rate                                 : 8 157 b/s
  301. Count of elements                        : 914
  302. Stream size                              : 5.62 MiB (0%)
  303. Title                                    : Thai
  304. Language                                 : Thai
  305. Default                                  : No
  306. Forced                                   : No

  307. Text #17
  308. ID                                       : 21
  309. Format                                   : PGS
  310. Muxing mode                              : zlib
  311. Codec ID                                 : S_HDMV/PGS
  312. Codec ID/Info                            : Picture based subtitle format used on BDs/HD-DVDs
  313. Duration                                 : 1 h 31 min
  314. Bit rate                                 : 32.8 kb/s
  315. Count of elements                        : 2050
  316. Stream size                              : 21.5 MiB (0%)
  317. Title                                    : Thai (Commentary 1)
  318. Language                                 : Thai
  319. Default                                  : No
  320. Forced                                   : No

  321. Text #18
  322. ID                                       : 22
  323. Format                                   : PGS
  324. Muxing mode                              : zlib
  325. Codec ID                                 : S_HDMV/PGS
  326. Codec ID/Info                            : Picture based subtitle format used on BDs/HD-DVDs
  327. Duration                                 : 1 h 30 min
  328. Bit rate                                 : 55.5 kb/s
  329. Count of elements                        : 3190
  330. Stream size                              : 36.0 MiB (1%)
  331. Title                                    : Thai (Commentary 2)
  332. Language                                 : Thai
  333. Default                                  : No
  334. Forced                                   : No

  335. Text #19
  336. ID                                       : 23
  337. Format                                   : PGS
  338. Muxing mode                              : zlib
  339. Codec ID                                 : S_HDMV/PGS
  340. Codec ID/Info                            : Picture based subtitle format used on BDs/HD-DVDs
  341. Duration                                 : 1 h 36 min
  342. Bit rate                                 : 9 040 b/s
  343. Count of elements                        : 896
  344. Stream size                              : 6.22 MiB (0%)
  345. Title                                    : Spanish
  346. Language                                 : Spanish
  347. Default                                  : No
  348. Forced                                   : No

  349. Text #20
  350. ID                                       : 24
  351. Format                                   : PGS
  352. Muxing mode                              : zlib
  353. Codec ID                                 : S_HDMV/PGS
  354. Codec ID/Info                            : Picture based subtitle format used on BDs/HD-DVDs
  355. Duration                                 : 1 h 31 min
  356. Bit rate                                 : 32.4 kb/s
  357. Count of elements                        : 2034
  358. Stream size                              : 21.2 MiB (0%)
  359. Title                                    : Spanish (Commentary 1)
  360. Language                                 : Spanish
  361. Default                                  : No
  362. Forced                                   : No

  363. Text #21
  364. ID                                       : 25
  365. Format                                   : PGS
  366. Muxing mode                              : zlib
  367. Codec ID                                 : S_HDMV/PGS
  368. Codec ID/Info                            : Picture based subtitle format used on BDs/HD-DVDs
  369. Duration                                 : 1 h 36 min
  370. Bit rate                                 : 7 190 b/s
  371. Count of elements                        : 916
  372. Stream size                              : 4.95 MiB (0%)
  373. Title                                    : Chinese Traditional
  374. Language                                 : Chinese
  375. Default                                  : No
  376. Forced                                   : No

  377. Text #22
  378. ID                                       : 26
  379. Format                                   : PGS
  380. Muxing mode                              : zlib
  381. Codec ID                                 : S_HDMV/PGS
  382. Codec ID/Info                            : Picture based subtitle format used on BDs/HD-DVDs
  383. Duration                                 : 1 h 36 min
  384. Bit rate                                 : 7 595 b/s
  385. Count of elements                        : 914
  386. Stream size                              : 5.23 MiB (0%)
  387. Title                                    : Chinese Simplified
  388. Language                                 : Chinese
  389. Default                                  : No
  390. Forced                                   : No

  391. Text #23
  392. ID                                       : 27
  393. Format                                   : PGS
  394. Muxing mode                              : zlib
  395. Codec ID                                 : S_HDMV/PGS
  396. Codec ID/Info                            : Picture based subtitle format used on BDs/HD-DVDs
  397. Duration                                 : 1 h 31 min
  398. Bit rate                                 : 28.7 kb/s
  399. Count of elements                        : 2050
  400. Stream size                              : 18.8 MiB (0%)
  401. Title                                    : Chinese (Commentary 1)
  402. Language                                 : Chinese
  403. Default                                  : No
  404. Forced                                   : No

  405. Text #24
  406. ID                                       : 28
  407. Format                                   : PGS
  408. Muxing mode                              : zlib
  409. Codec ID                                 : S_HDMV/PGS
  410. Codec ID/Info                            : Picture based subtitle format used on BDs/HD-DVDs
  411. Duration                                 : 1 h 30 min
  412. Bit rate                                 : 50.1 kb/s
  413. Count of elements                        : 3190
  414. Stream size                              : 32.6 MiB (1%)
  415. Title                                    : Chinese (Commentary 2)
  416. Language                                 : Chinese
  417. Default                                  : No
  418. Forced                                   : No

  419. Text #25
  420. ID                                       : 29
  421. Format                                   : PGS
  422. Muxing mode                              : zlib
  423. Codec ID                                 : S_HDMV/PGS
  424. Codec ID/Info                            : Picture based subtitle format used on BDs/HD-DVDs
  425. Duration                                 : 1 h 36 min
  426. Bit rate                                 : 7 679 b/s
  427. Count of elements                        : 918
  428. Stream size                              : 5.29 MiB (0%)
  429. Title                                    : Cantonese
  430. Language                                 : Chinese
  431. Default                                  : No
  432. Forced                                   : No

  433. Menu
  434. 00:00:00.000                             : en:Chapter 01
  435. 00:04:06.371                             : en:Chapter 02
  436. 00:08:39.477                             : en:Chapter 03
  437. 00:13:10.790                             : en:Chapter 04
  438. 00:19:12.777                             : en:Chapter 05
  439. 00:24:10.658                             : en:Chapter 06
  440. 00:28:03.891                             : en:Chapter 07
  441. 00:31:33.934                             : en:Chapter 08
  442. 00:37:15.108                             : en:Chapter 09
  443. 00:41:25.942                             : en:Chapter 10
  444. 00:45:21.928                             : en:Chapter 11
  445. 00:50:37.243                             : en:Chapter 12
  446. 00:55:42.798                             : en:Chapter 13
  447. 01:02:19.861                             : en:Chapter 14
  448. 01:09:26.537                             : en:Chapter 15
  449. 01:18:19.653                             : en:Chapter 16
  450. 01:31:47.293                             : en:Chapter 17
复制代码





                                       
                                       

                                       
                                       
                                       




回复

使用道具 举报

蓝光币
17
发表于 2021-10-31 08:49:13 | 显示全部楼层
好电影不错
回复 支持 反对

使用道具 举报

懒得打字嘛,点击右侧快捷回复 【右侧内容,后台自定义】
您需要登录后才可以回帖 登录 | 立即加入

本版积分规则

Archiver|小黑屋| 蓝光电影网 |网站地图

Copyright © 2021 Comsenz Inc. Powered by 蓝光电影网

蓝光电影网

本站内容由用户自主分享和转载自互联网,转载目的在于传递更多信息,并不代表本网赞同其观点和对其真实性负责。

如有侵权、违反国家法律政策行为,请联系我们,我们会第一时间及时清除和处理!

举报反馈邮箱:kf4k108[email protected]

快速回复 返回顶部 返回列表