找回密码

蓝光电影网

查看: 362|回复: 0

[惊悚] 屏住呼吸2/别呼吸2 Dont.Breathe.2.2021.1080p.BluRay.x264-PiGNUS 9.88GB

[复制链接]
蓝光币
733
发表于 2021-10-27 08:42:35 | 显示全部楼层 |阅读模式


◎译  名 屏住呼吸2/别呼吸2/临时停止呼吸2(台)/禁室杀戮2(港)
◎片  名 Don't Breathe 2
◎年  代 2021
◎产  地 美国,塞尔维亚
◎类  别 惊悚 / 可骇
◎语  言 英语
◎上映日期 2021-08-13(美国)
◎豆瓣评分 6.5/10 from 18144 users
◎豆瓣链接 https://movie.douban.com/subject/26915921/
◎片  长 98分钟
◎导  演 罗多·赛亚格斯 Rodo Sayagues
◎编  剧 费德·阿尔瓦雷兹 Fede Alvarez / 罗多·赛亚格斯 Rodo Sayagues
◎主  演 史蒂芬·朗 Stephen Lang
       布兰登·萨克斯顿 Brendan Sexton III
       马德琳·格雷斯 Madelyn Grace
       罗奇·威廉姆斯 Rocci Williams
       斯蒂芬妮·阿西拉 Stephanie Arcila
       鲍比·斯科菲尔德 Bobby Schofield
       戴安娜·巴尼科娃 Diaana Babnicova
       亚当·扬 Adam Young
       克里斯蒂安·泽吉亚 Christian Zagia
       罗恩·罗格尔 Ron Rogell
       菲奥娜·奥肖内西 Fiona O'Shaughnessy
◎标  签 惊悚 | 犯罪 | 美国 | 悬疑 | 2021 | 可骇 | 美国电影 | 电影
◎简  介


  《屏住呼吸1》编剧罗多·赛亚格斯执导,并同前作导演费德·阿尔瓦雷兹一路写剧本,史蒂芬·朗、罗奇·威廉姆斯、斯蒂芬妮·阿西拉、鲍比·斯科菲尔德、亚当·扬等主演。
  
  故事发生在最初致命的入室抢劫以后的几年,眼盲的退伍老兵诺曼过着安静的生活,直到曩昔的罪行起头找上他。
  1. Video
  2. ID                                       : 1
  3. Format                                   : AVC
  4. Format/Info                              : Advanced Video Codec
  5. Format profile                           : [email protected]
  6. Format settings                          : CABAC / 5 Ref Frames
  7. Format settings, CABAC                   : Yes
  8. Format settings, Reference frames        : 5 frames
  9. Codec ID                                 : V_MPEG4/ISO/AVC
  10. Duration                                 : 1 h 38 min
  11. Bit rate                                 : 11.7 Mb/s
  12. Width                                    : 1 920 pixels
  13. Height                                   : 804 pixels
  14. Display aspect ratio                     : 2.40:1
  15. Frame rate mode                          : Constant
  16. Frame rate                               : 23.976 (24000/1001/189150) FPS
  17. Color space                              : YUV
  18. Chroma subsampling                       : 4:2:0
  19. Bit depth                                : 8 bits
  20. Scan type                                : Progressive
  21. Bits/(Pixel*Frame)                       : 0.317
  22. Stream size                              : 8.06 GiB (82%)
  23. Writing library                          : x264 core 164 r3075 66a5bc1
  24. Encoding settings                        : cabac=1 / ref=5 / deblock=1:-3:-3 / analyse=0x3:0x133 / me=umh / subme=9 / psy=1 / psy_rd=1.00:0.00 / mixed_ref=1 / me_range=16 / chroma_me=1 / trellis=2 / 8x8dct=1 / cqm=0 / deadzone=21,11 / fast_pskip=1 / chroma_qp_offset=-2 / threads=25 / lookahead_threads=2 / sliced_threads=0 / nr=0 / decimate=1 / interlaced=0 / bluray_compat=0 / constrained_intra=0 / bframes=3 / b_pyramid=2 / b_adapt=2 / b_bias=0 / direct=3 / weightb=1 / open_gop=0 / weightp=2 / keyint=250 / keyint_min=23 / scenecut=40 / intra_refresh=0 / rc_lookahead=60 / rc=crf / mbtree=1 / crf=15.5 / qcomp=0.60 / qpmin=0 / qpmax=69 / qpstep=4 / ip_ratio=1.40 / aq=1:1.00
  25. Default                                  : Yes
  26. Forced                                   : No

  27. Audio #1
  28. ID                                       : 2
  29. Format                                   : DTS XLL
  30. Format/Info                              : Digital Theater Systems
  31. Commercial name                          : DTS-HD Master Audio
  32. Codec ID                                 : A_DTS
  33. Duration                                 : 1 h 38 min
  34. Bit rate mode                            : Variable
  35. Bit rate                                 : 2 235 kb/s
  36. Channel(s)                               : 6 channels
  37. Channel layout                           : C L R Ls Rs LFE
  38. Sampling rate                            : 48.0 kHz
  39. Frame rate                               : 93.750 FPS (512 SPF)
  40. Bit depth                                : 16 bits
  41. Compression mode                         : Lossless
  42. Stream size                              : 1.53 GiB (16%)
  43. Language                                 : English
  44. Default                                  : Yes
  45. Forced                                   : No

  46. Audio #2
  47. ID                                       : 3
  48. Format                                   : AAC LC
  49. Format/Info                              : Advanced Audio Codec Low Complexity
  50. Codec ID                                 : A_AAC-2
  51. Duration                                 : 1 h 38 min
  52. Bit rate                                 : 117 kb/s
  53. Channel(s)                               : 2 channels
  54. Channel layout                           : L R
  55. Sampling rate                            : 48.0 kHz
  56. Frame rate                               : 46.875 FPS (1024 SPF)
  57. Compression mode                         : Lossy
  58. Delay relative to video                  : 9 ms
  59. Stream size                              : 82.1 MiB (1%)
  60. Title                                    : Commentary
  61. Language                                 : English
  62. Default                                  : Yes
  63. Forced                                   : No

  64. Text #1
  65. ID                                       : 4
  66. Format                                   : PGS
  67. Muxing mode                              : zlib
  68. Codec ID                                 : S_HDMV/PGS
  69. Codec ID/Info                            : Picture based subtitle format used on BDs/HD-DVDs
  70. Duration                                 : 1 h 30 min
  71. Bit rate                                 : 14.9 kb/s
  72. Count of elements                        : 1466
  73. Stream size                              : 9.67 MiB (0%)
  74. Title                                    : English SDH
  75. Language                                 : English
  76. Default                                  : No
  77. Forced                                   : No

  78. Text #2
  79. ID                                       : 5
  80. Format                                   : PGS
  81. Muxing mode                              : zlib
  82. Codec ID                                 : S_HDMV/PGS
  83. Codec ID/Info                            : Picture based subtitle format used on BDs/HD-DVDs
  84. Duration                                 : 1 h 26 min
  85. Bit rate                                 : 9 894 b/s
  86. Count of elements                        : 986
  87. Stream size                              : 6.15 MiB (0%)
  88. Title                                    : English
  89. Language                                 : English
  90. Default                                  : No
  91. Forced                                   : No

  92. Text #3
  93. ID                                       : 6
  94. Format                                   : PGS
  95. Muxing mode                              : zlib
  96. Codec ID                                 : S_HDMV/PGS
  97. Codec ID/Info                            : Picture based subtitle format used on BDs/HD-DVDs
  98. Duration                                 : 1 h 36 min
  99. Bit rate                                 : 7 679 b/s
  100. Count of elements                        : 918
  101. Stream size                              : 5.29 MiB (0%)
  102. Title                                    : Chinese
  103. Language                                 : Chinese
  104. Default                                  : No
  105. Forced                                   : No

  106. Text #4
  107. ID                                       : 7
  108. Format                                   : PGS
  109. Muxing mode                              : zlib
  110. Codec ID                                 : S_HDMV/PGS
  111. Codec ID/Info                            : Picture based subtitle format used on BDs/HD-DVDs
  112. Duration                                 : 1 h 36 min
  113. Bit rate                                 : 7 595 b/s
  114. Count of elements                        : 914
  115. Stream size                              : 5.23 MiB (0%)
  116. Title                                    : Chinese
  117. Language                                 : Chinese
  118. Default                                  : No
  119. Forced                                   : No

  120. Text #5
  121. ID                                       : 8
  122. Format                                   : PGS
  123. Muxing mode                              : zlib
  124. Codec ID                                 : S_HDMV/PGS
  125. Codec ID/Info                            : Picture based subtitle format used on BDs/HD-DVDs
  126. Duration                                 : 1 h 36 min
  127. Bit rate                                 : 7 190 b/s
  128. Count of elements                        : 916
  129. Stream size                              : 4.95 MiB (0%)
  130. Title                                    : Chinese
  131. Language                                 : Chinese
  132. Default                                  : No
  133. Forced                                   : No

  134. Text #6
  135. ID                                       : 9
  136. Format                                   : PGS
  137. Muxing mode                              : zlib
  138. Codec ID                                 : S_HDMV/PGS
  139. Codec ID/Info                            : Picture based subtitle format used on BDs/HD-DVDs
  140. Duration                                 : 1 h 36 min
  141. Bit rate                                 : 8 093 b/s
  142. Count of elements                        : 846
  143. Stream size                              : 5.57 MiB (0%)
  144. Title                                    : French
  145. Language                                 : French
  146. Default                                  : No
  147. Forced                                   : No

  148. Text #7
  149. ID                                       : 10
  150. Format                                   : PGS
  151. Muxing mode                              : zlib
  152. Codec ID                                 : S_HDMV/PGS
  153. Codec ID/Info                            : Picture based subtitle format used on BDs/HD-DVDs
  154. Duration                                 : 1 h 36 min
  155. Bit rate                                 : 9 795 b/s
  156. Count of elements                        : 906
  157. Stream size                              : 6.74 MiB (0%)
  158. Title                                    : Indonesian
  159. Language                                 : Indonesian
  160. Default                                  : No
  161. Forced                                   : No

  162. Text #8
  163. ID                                       : 11
  164. Format                                   : PGS
  165. Muxing mode                              : zlib
  166. Codec ID                                 : S_HDMV/PGS
  167. Codec ID/Info                            : Picture based subtitle format used on BDs/HD-DVDs
  168. Duration                                 : 1 h 36 min
  169. Bit rate                                 : 7 309 b/s
  170. Count of elements                        : 924
  171. Stream size                              : 5.03 MiB (0%)
  172. Title                                    : Korean
  173. Language                                 : Korean
  174. Default                                  : No
  175. Forced                                   : No

  176. Text #9
  177. ID                                       : 12
  178. Format                                   : PGS
  179. Muxing mode                              : zlib
  180. Codec ID                                 : S_HDMV/PGS
  181. Codec ID/Info                            : Picture based subtitle format used on BDs/HD-DVDs
  182. Duration                                 : 1 h 36 min
  183. Bit rate                                 : 10.4 kb/s
  184. Count of elements                        : 910
  185. Stream size                              : 7.16 MiB (0%)
  186. Title                                    : Malay
  187. Language                                 : Malay
  188. Default                                  : No
  189. Forced                                   : No

  190. Text #10
  191. ID                                       : 13
  192. Format                                   : PGS
  193. Muxing mode                              : zlib
  194. Codec ID                                 : S_HDMV/PGS
  195. Codec ID/Info                            : Picture based subtitle format used on BDs/HD-DVDs
  196. Duration                                 : 1 h 36 min
  197. Bit rate                                 : 9 196 b/s
  198. Count of elements                        : 890
  199. Stream size                              : 6.33 MiB (0%)
  200. Title                                    : Portuguese
  201. Language                                 : Portuguese
  202. Default                                  : No
  203. Forced                                   : No

  204. Text #11
  205. ID                                       : 14
  206. Format                                   : PGS
  207. Muxing mode                              : zlib
  208. Codec ID                                 : S_HDMV/PGS
  209. Codec ID/Info                            : Picture based subtitle format used on BDs/HD-DVDs
  210. Duration                                 : 1 h 36 min
  211. Bit rate                                 : 9 040 b/s
  212. Count of elements                        : 896
  213. Stream size                              : 6.22 MiB (0%)
  214. Title                                    : Spanish
  215. Language                                 : Spanish
  216. Default                                  : No
  217. Forced                                   : No

  218. Text #12
  219. ID                                       : 15
  220. Format                                   : PGS
  221. Muxing mode                              : zlib
  222. Codec ID                                 : S_HDMV/PGS
  223. Codec ID/Info                            : Picture based subtitle format used on BDs/HD-DVDs
  224. Duration                                 : 1 h 36 min
  225. Bit rate                                 : 8 157 b/s
  226. Count of elements                        : 914
  227. Stream size                              : 5.62 MiB (0%)
  228. Title                                    : Thai
  229. Language                                 : Thai
  230. Default                                  : No
  231. Forced                                   : No

  232. Text #13
  233. ID                                       : 16
  234. Format                                   : PGS
  235. Muxing mode                              : zlib
  236. Codec ID                                 : S_HDMV/PGS
  237. Codec ID/Info                            : Picture based subtitle format used on BDs/HD-DVDs
  238. Duration                                 : 1 h 36 min
  239. Bit rate                                 : 71 b/s
  240. Count of elements                        : 6
  241. Stream size                              : 50.6 KiB (0%)
  242. Title                                    : French
  243. Language                                 : French
  244. Default                                  : No
  245. Forced                                   : No

  246. Text #14
  247. ID                                       : 17
  248. Format                                   : PGS
  249. Muxing mode                              : zlib
  250. Codec ID                                 : S_HDMV/PGS
  251. Codec ID/Info                            : Picture based subtitle format used on BDs/HD-DVDs
  252. Duration                                 : 1 h 31 min
  253. Bit rate                                 : 37.5 kb/s
  254. Count of elements                        : 2317
  255. Stream size                              : 24.6 MiB (0%)
  256. Title                                    : Commentary
  257. Language                                 : English
  258. Default                                  : No
  259. Forced                                   : No

  260. Text #15
  261. ID                                       : 18
  262. Format                                   : PGS
  263. Muxing mode                              : zlib
  264. Codec ID                                 : S_HDMV/PGS
  265. Codec ID/Info                            : Picture based subtitle format used on BDs/HD-DVDs
  266. Duration                                 : 1 h 31 min
  267. Bit rate                                 : 28.7 kb/s
  268. Count of elements                        : 2050
  269. Stream size                              : 18.8 MiB (0%)
  270. Title                                    : Chinese
  271. Language                                 : Chinese
  272. Default                                  : No
  273. Forced                                   : No

  274. Text #16
  275. ID                                       : 19
  276. Format                                   : PGS
  277. Muxing mode                              : zlib
  278. Codec ID                                 : S_HDMV/PGS
  279. Codec ID/Info                            : Picture based subtitle format used on BDs/HD-DVDs
  280. Duration                                 : 1 h 31 min
  281. Bit rate                                 : 26.3 kb/s
  282. Count of elements                        : 2050
  283. Stream size                              : 17.2 MiB (0%)
  284. Title                                    : Korean
  285. Language                                 : Korean
  286. Default                                  : No
  287. Forced                                   : No

  288. Text #17
  289. ID                                       : 20
  290. Format                                   : PGS
  291. Muxing mode                              : zlib
  292. Codec ID                                 : S_HDMV/PGS
  293. Codec ID/Info                            : Picture based subtitle format used on BDs/HD-DVDs
  294. Duration                                 : 1 h 31 min
  295. Bit rate                                 : 32.5 kb/s
  296. Count of elements                        : 1980
  297. Stream size                              : 21.3 MiB (0%)
  298. Title                                    : Portuguese
  299. Language                                 : Portuguese
  300. Default                                  : No
  301. Forced                                   : No

  302. Text #18
  303. ID                                       : 21
  304. Format                                   : PGS
  305. Muxing mode                              : zlib
  306. Codec ID                                 : S_HDMV/PGS
  307. Codec ID/Info                            : Picture based subtitle format used on BDs/HD-DVDs
  308. Duration                                 : 1 h 31 min
  309. Bit rate                                 : 32.4 kb/s
  310. Count of elements                        : 2034
  311. Stream size                              : 21.2 MiB (0%)
  312. Title                                    : Spanish
  313. Language                                 : Spanish
  314. Default                                  : No
  315. Forced                                   : No

  316. Text #19
  317. ID                                       : 22
  318. Format                                   : PGS
  319. Muxing mode                              : zlib
  320. Codec ID                                 : S_HDMV/PGS
  321. Codec ID/Info                            : Picture based subtitle format used on BDs/HD-DVDs
  322. Duration                                 : 1 h 31 min
  323. Bit rate                                 : 32.8 kb/s
  324. Count of elements                        : 2050
  325. Stream size                              : 21.5 MiB (0%)
  326. Title                                    : Thai
  327. Language                                 : Thai
  328. Default                                  : No
  329. Forced                                   : No

  330. Text #20
  331. ID                                       : 23
  332. Format                                   : PGS
  333. Muxing mode                              : zlib
  334. Codec ID                                 : S_HDMV/PGS
  335. Codec ID/Info                            : Picture based subtitle format used on BDs/HD-DVDs
  336. Duration                                 : 1 h 31 min
  337. Bit rate                                 : 66.3 kb/s
  338. Count of elements                        : 3264
  339. Stream size                              : 43.3 MiB (0%)
  340. Title                                    : English
  341. Language                                 : English
  342. Default                                  : No
  343. Forced                                   : No

  344. Text #21
  345. ID                                       : 24
  346. Format                                   : PGS
  347. Muxing mode                              : zlib
  348. Codec ID                                 : S_HDMV/PGS
  349. Codec ID/Info                            : Picture based subtitle format used on BDs/HD-DVDs
  350. Duration                                 : 1 h 30 min
  351. Bit rate                                 : 50.1 kb/s
  352. Count of elements                        : 3190
  353. Stream size                              : 32.6 MiB (0%)
  354. Title                                    : Chinese
  355. Language                                 : Chinese
  356. Default                                  : No
  357. Forced                                   : No

  358. Text #22
  359. ID                                       : 25
  360. Format                                   : PGS
  361. Muxing mode                              : zlib
  362. Codec ID                                 : S_HDMV/PGS
  363. Codec ID/Info                            : Picture based subtitle format used on BDs/HD-DVDs
  364. Duration                                 : 1 h 30 min
  365. Bit rate                                 : 46.1 kb/s
  366. Count of elements                        : 3190
  367. Stream size                              : 29.9 MiB (0%)
  368. Title                                    : Korean
  369. Language                                 : Korean
  370. Default                                  : No
  371. Forced                                   : No

  372. Text #23
  373. ID                                       : 26
  374. Format                                   : PGS
  375. Muxing mode                              : zlib
  376. Codec ID                                 : S_HDMV/PGS
  377. Codec ID/Info                            : Picture based subtitle format used on BDs/HD-DVDs
  378. Duration                                 : 1 h 30 min
  379. Bit rate                                 : 53.2 kb/s
  380. Count of elements                        : 3105
  381. Stream size                              : 34.6 MiB (0%)
  382. Title                                    : Portuguese
  383. Language                                 : Portuguese
  384. Default                                  : No
  385. Forced                                   : No

  386. Text #24
  387. ID                                       : 27
  388. Format                                   : PGS
  389. Muxing mode                              : zlib
  390. Codec ID                                 : S_HDMV/PGS
  391. Codec ID/Info                            : Picture based subtitle format used on BDs/HD-DVDs
  392. Duration                                 : 1 h 30 min
  393. Bit rate                                 : 55.5 kb/s
  394. Count of elements                        : 3190
  395. Stream size                              : 36.0 MiB (0%)
  396. Title                                    : Thai
  397. Language                                 : Thai
  398. Default                                  : No
  399. Forced                                   : No

  400. Menu
  401. 00:00:00.000                             : en:Chapter 01
  402. 00:04:06.371                             : en:Chapter 02
  403. 00:08:39.477                             : en:Chapter 03
  404. 00:13:10.790                             : en:Chapter 04
  405. 00:19:12.777                             : en:Chapter 05
  406. 00:24:10.658                             : en:Chapter 06
  407. 00:28:03.891                             : en:Chapter 07
  408. 00:31:33.934                             : en:Chapter 08
  409. 00:37:15.108                             : en:Chapter 09
  410. 00:41:25.942                             : en:Chapter 10
  411. 00:45:21.928                             : en:Chapter 11
  412. 00:50:37.243                             : en:Chapter 12
  413. 00:55:42.798                             : en:Chapter 13
  414. 01:02:19.861                             : en:Chapter 14
  415. 01:09:26.537                             : en:Chapter 15
  416. 01:18:19.653                             : en:Chapter 16
复制代码





                                       
                                       

                                       
                                       
                                       




回复

使用道具 举报

懒得打字嘛,点击右侧快捷回复 【右侧内容,后台自定义】
您需要登录后才可以回帖 登录 | 立即加入

本版积分规则

Archiver|小黑屋| 蓝光电影网 |网站地图

Copyright © 2021 Comsenz Inc. Powered by 蓝光电影网

蓝光电影网

本站内容由用户自主分享和转载自互联网,转载目的在于传递更多信息,并不代表本网赞同其观点和对其真实性负责。

如有侵权、违反国家法律政策行为,请联系我们,我们会第一时间及时清除和处理!

举报反馈邮箱:[email protected]

快速回复 返回顶部 返回列表