找回密码

查看: 3181|回复: 3

[剧情] 对她说.Talk to Her.2002.ES.BluRay.1920x822p.x264.AC3-KOOK.[西语中字] 7.67GB

[复制链接]
蓝光币
1984
发表于 2017-12-19 21:01:22 | 显示全部楼层 |阅读模式
对她说.Talk to Her.2002.ES.BluRay.1920x822p.x264.AC3-KOOK.[西语中字] 7.67GB
095729gka7f99enocnna1f.jpg
095730hh2i5h4hkkhaid4h.jpg
※※※※※※※ 影片信息 ※※※※※※※
◎片   名 Hable con ella
◎译   名 对她说 / 静静告诉她 / 对她有话儿 / Talk to Her
◎年   代 2002
◎国   家 西班牙
◎类   别 剧情
◎语   言 西班牙语
◎上映日 期  2002-03-15(西班牙)
◎字   幕 简体字幕/繁体字幕
◎IMDB 评分  8.0/10 from 91962 users
◎豆瓣 评分  8.6/10 from 53663 users
◎视频尺 寸  1920x822p
◎片   长 1.52.35
◎导   演 佩德罗·阿莫多瓦
◎编     剧  佩德罗·阿莫多瓦
◎主   演 哈维尔·卡马拉 / 达里奥·格兰迪内蒂 / 蕾欧诺·瓦特林 / 罗萨里奥·弗洛雷斯 / 马里奥拉·福恩特斯

◎简  介
  马克(达里奥 葛兰帝内提Darío Grandinetti饰)和贝尼诺(加维埃尔·卡马拉Javier Cámara饰)在一场表演前都被深深感动。马克眼里泪光点点,坐在旁边的贝尼诺看到,心里被某种柔嫩的豪情击到。本以为是萍水重逢,却不意这两个惺惺相惜的汉子往后还有交集。
  马克的女友莉迪亚(罗萨里奥·福罗雷斯Rosario Flores饰)本是一个职业斗牛士,角逐场上的意外令她酿成了动物人。现在莉迪亚就躺在贝尼诺的医院里接管治疗。马克天天来到这里,盼望莉迪亚能苏醒过来。
  实在,贝尼诺也在这里守着他的恋爱,一守就是四年。女孩阿里西亚(蕾欧诺·瓦特林 Leonor Watling饰)是一个芭蕾舞女生,贝尼诺已经住在她的舞蹈室的劈面,天天对翩翩倩影悄悄心动。当女孩碰到车祸酿成动物人以后,贝尼诺天天都对她措辞,相信她能听到的信心在他心中从未摆荡。
  两个汉子,现在都有不异的孤独,不异的处境,友谊在酝酿积聚。但是没想到,分开不多时的马克却接连收到凶讯,就连贝尼诺,也堕入了命运的漩涡。
2002年        第15届欧洲电影奖-最好影片        奥古斯汀·阿莫多瓦        获奖
第15届欧洲电影奖-最好导演        佩德罗·阿莫多瓦        获奖
第15届欧洲电影奖-最好编剧        佩德罗·阿莫多瓦        获奖
第15届欧洲电影奖-观众奖-最好男演员        贾维尔·卡马拉        获奖
第15届欧洲电影奖-观众奖-最好导演        佩德罗·阿莫多瓦        获奖
第15届欧洲电影奖-最好男演员        贾维尔·卡马拉        提名
第15届欧洲电影奖-最好摄影        加维尔·阿吉雷撒罗贝        提名
2003年        第75届奥斯卡奖-最好原创剧本        佩德罗·阿莫多瓦        获奖
第75届奥斯卡奖-最好导演        佩德罗·阿莫多瓦        提名
2003年        第60届美国金球奖-电影类-最好外语片        电影        获奖
2003年        第56届英国电影和电视艺术学院奖电影奖-最好非英语片        佩德罗·阿莫多瓦、奥古斯汀·阿莫多瓦        获奖
第56届英国电影和电视艺术学院奖电影奖-最好剧本-原创        佩德罗·阿莫多瓦        获奖
2003年        第28届法国凯撒奖-最好欧盟电影        佩德罗·阿莫多瓦        获奖
2003年        第17届西班牙戈雅奖-最好原创配乐        阿尔贝托·伊格莱西亚斯        获奖
第17届西班牙戈雅奖-最好影片        电影
          提名
第17届西班牙戈雅奖-最好男演员        贾维尔·卡马拉        提名
第17届西班牙戈雅奖-最好导演        佩德罗·阿莫多瓦        提名
第17届西班牙戈雅奖-最好原创剧本        佩德罗·阿莫多瓦        提名
第17届西班牙戈雅奖-最好音效        Miguel Rejas、José Antonio Bermúdez、Rosa Ortiz、Diego Garrido        提名
第17届西班牙戈雅奖-最好殊效        David Martí、Montse Ribé、Jorge Calvo        提名
※※※※※※※ 参数信息 ※※※※※※※
General
Unique ID                      : 214177243693336418251239208076925210588 (0xA121096567151A1390AF911D3CD40FDC)
Format                         : Matroska
Format version                 : Version 4 / Version 2
File size                      : 7.68GB
Duration                       : 1 h 52 min
Overall bit rate               : 9 764 kb/s
Encoded date                   : UTC 2017-11-11 00:25:05
Writing application            : mkvmerge v9.4.2 ( So High ) 64bit
Writing library                : libebml v1.3.4 + libmatroska v1.4.5
Attachments                    : 正式海报 西班牙.jpg / msyh.ttf / msyhbd.ttf
Video
ID                             : 1
Format                         : AVC
Format/Info                    : Advanced Video Codec
Format profile                 : High@L4.1
Format settings, CABAC         : Yes
Format settings, ReFrames      : 4 frames
Codec ID                       : V_MPEG4/ISO/AVC
Duration                       : 1 h 52 min
Bit rate                       : 9 080 kb/s
Width                          : 1 920 pixels
Height                         : 822 pixels
Display aspect ratio           : 2.35:1
Frame rate mode                : Constant
Frame rate                     : 24.000 FPS
Color space                    : YUV
Chroma subsampling             : 4:2:0
Bit depth                      : 8 bits
Scan type                      : Progressive
Bits/(Pixel*Frame)             : 0.240
Stream size                    : 7.14GB (93%)
Writing library                : x264 core 104 r1713 c276662
Encoding settings              : cabac=1 / ref=4 / deblock=1:-2:-2 / analyse=0x3:0x113 / me=umh / subme=9 / psy=1 / psy_rd=1.20:0.20 / mixed_ref=1 / me_range=32 / chroma_me=1 / trellis=1 / 8x8dct=1 / cqm=0 / deadzone=21,11 / fast_pskip=0 / chroma_qp_offset=-3 / threads=6 / sliced_threads=0 / nr=0 / decimate=0 / interlaced=0 / constrained_intra=0 / bframes=5 / b_pyramid=2 / b_adapt=2 / b_bias=0 / direct=1 / weightb=1 / open_gop=0 / weightp=2 / keyint=250 / keyint_min=2 / scenecut=40 / intra_refresh=0 / rc_lookahead=72 / rc=2pass / mbtree=1 / bitrate=9080 / ratetol=1.0 / qcomp=0.60 / qpmin=10 / qpmax=51 / qpstep=4 / cplxblur=20.0 / qblur=0.5 / vbv_maxrate=38000 / vbv_bufsize=38000 / ip_ratio=1.40 / aq=1:1.00 / nal_hrd=none
Language                       : Spanish
Default                        : Yes
Forced                         : No
Audio
ID                             : 2
Format                         : AC-3
Format/Info                    : Audio Coding 3
Mode extension                 : CM (complete main)
Format settings, Endianness    : Big
Codec ID                       : A_AC3
Duration                       : 1 h 52 min
Bit rate mode                  : Constant
Bit rate                       : 640 kb/s
Channel(s)                     : 6 channels
Channel positions              : Front: L C R, Side: L R, LFE
Sampling rate                  : 48.0 kHz
Frame rate                     : 31.250 FPS (1536 spf)
Compression mode               : Lossy
Stream size                    : 515 MiB (7%)
Language                       : Spanish
Default                        : Yes
Forced                         : Yes
Text #1
ID                             : 3
Format                         : ASS
Codec ID                       : S_TEXT/ASS
Codec ID/Info                  : Advanced Sub Station Alpha
Duration                       : 1 h 48 min
Bit rate                       : 168 b/s
Count of elements              : 1378
Compression mode               : Lossless
Stream size                    : 133 KiB (0%)
Title                          : 简体字幕
Language                       : Chinese
Default                        : Yes
Forced                         : No
Text #2
ID                             : 4
Format                         : ASS
Codec ID                       : S_TEXT/ASS
Codec ID/Info                  : Advanced Sub Station Alpha
Duration                       : 1 h 48 min
Bit rate                       : 168 b/s
Count of elements              : 1378
Compression mode               : Lossless
Stream size                    : 133 KiB (0%)
Title                          : 繁体字幕
Language                       : Chinese
Default                        : No
Forced                         : No
095731hqvl9tvzvqaz9xvo.jpg






回复

使用道具 举报

懒得打字嘛,点击右侧快捷回复 【右侧内容,后台自定义】
您需要登录后才可以回帖 登录 | 立即加入

本版积分规则

Archiver| |网站地图

Copyright © 2024 Comsenz Inc. Powered by 蓝光电影网

本站内容由用户自主分享和转载自互联网,转载目的在于传递更多信息,并不代表本网赞同其观点和对其真实性负责。

如有侵权、违反国家法律政策行为,请联系我们,我们会第一时间及时清除和处理!

举报反馈邮箱:4k1080.com@gmail.com

快速回复 返回顶部 返回列表