找回密码

蓝光电影网

查看: 35|回复: 0

[剧情] 她说.She.Said.2022.720p.BluRay.x264.DTS-MT 5.05GB

[复制链接]
蓝光币
1084
发表于 2023-1-10 16:08:47 | 显示全部楼层 |阅读模式


◎标  题 她说
◎译  名 她有话要说(台)
◎片  名 She Said
◎年  代 2022
◎产  地 美国
◎类  别 剧情
◎语  言 英语
◎上映日期 2022-10-13(纽约电影节) / 2022-11-18(美国)
◎IMDb评分 7.4/10 (1968人评价)
◎IMDb链接 https://www.imdb.com/title/tt14807308/
◎豆瓣评分 8.2/10 (334人评价)
◎豆瓣链接 https://movie.douban.com/subject/35493136/
◎片  长 135分钟
◎导  演 玛丽亚·施拉德 Maria Schrader
◎编  剧 丽贝卡·伦科维茨 Rebecca Lenkiewicz
       乔迪·坎托尔 Jodi Kantor
       梅根·吐赫 Megan Twohey
       丽贝卡·科贝特 Rebecca Corbett
◎演  员 凯瑞·穆里根 Carey Mulligan
       佐伊·卡赞 Zoe Kazan
       派翠西娅·克拉克森 Patricia Clarkson
       安德鲁·布劳尔 Andre Braugher
       詹妮弗·艾莉 Jennifer Ehle
       安杰拉·耶奥 Angela Yeoh
       马伦·赫伊 Maren Heary
       肖恩·卡伦 Sean Cullen
       阿纳斯塔西娅·巴兹 Anastasia Barzee
       凯莉麦奎尔 Keilly McQuail
       希拉里·格瑞尔 Hilary Greer
       蒂娜·王-卢 Tina WongLu
       南希·艾伦·萧尔 Nancy Ellen Shore
       艾玛·奥康纳 Emma O'Connor
       埃尔·格雷厄姆 Elle Graham
       杰森·巴宾斯基 Jason Babinsky
       皮特·弗雷德曼 Peter Friedman
       朱迪丝·戈德雷什 Judith Godrèche
       扎克·格雷尼尔 Zach Grenier
       麦克·休斯顿 Mike Houston
       詹姆士·奥斯汀·约翰逊 James Austin Johnson
       艾什莉·贾德 Ashley Judd
       黛拉·纳普 Dalya Knapp
       玛伦·洛德 Maren Lord
       萨曼莎·莫顿 Samantha Morton
       汤姆·派福瑞 Tom Pelphrey
       亚当·沙皮罗 Adam Shapiro
       莫莉·温德索尔 Molly Windsor
       比尔·奥雷利 Bill O'Reilly
       汉斯约格·白里奇 Hansjörg Weißbrich
◎简  介
  故事聚焦《纽约时报》女记者乔迪·坎托尔(佐伊·卡赞 饰)与梅根·吐赫(凯瑞·穆里根 饰),她们联手撰写了这个世代最重要的一篇报道,进而激发#MeToo活动,不单揭发了好莱坞数十年来默许的性侵真相,也永久改变了美国文化。                                    
                                影片按照畅销书《她说:打破性骚扰的故事,帮助扑灭了一场活动》(She Said: Breaking the Sexual Harassment Story That Helped Ignite a Movement)改编。
  1. Video
  2. ID                                       : 1
  3. Format                                   : AVC
  4. Format/Info                              : Advanced Video Codec
  5. Format profile                           : [email protected]
  6. Format settings                          : CABAC / 9 Ref Frames
  7. Format settings, CABAC                   : Yes
  8. Format settings, Reference frames        : 9 frames
  9. Codec ID                                 : V_MPEG4/ISO/AVC
  10. Duration                                 : 2 h 9 min
  11. Bit rate                                 : 4 081 kb/s
  12. Width                                    : 1 280 pixels
  13. Height                                   : 694 pixels
  14. Display aspect ratio                     : 1.85:1
  15. Frame rate mode                          : Constant
  16. Frame rate                               : 23.976 (24000/1001) FPS
  17. Color space                              : YUV
  18. Chroma subsampling                       : 4:2:0
  19. Bit depth                                : 8 bits
  20. Scan type                                : Progressive
  21. Bits/(Pixel*Frame)                       : 0.192
  22. Stream size                              : 3.68 GiB (73%)
  23. Writing library                          : x264 core 157 r2938 2b00a84 [email protected] Mod
  24. Encoding settings                        : cabac=1 / ref=9 / deblock=1:-3:-3 / analyse=0x3:0x133 / me=umh / subme=10 / psy=1 / psy_rd=1.05:0.00 / mixed_ref=1 / me_range=32 / chroma_me=1 / trellis=2 / 8x8dct=1 / cqm=0 / deadzone=21,11 / fast_pskip=0 / chroma_qp_offset=-2 / threads=12 / lookahead_threads=2 / sliced_threads=0 / nr=0 / decimate=0 / interlaced=0 / bluray_compat=0 / constrained_intra=0 / bframes=8 / b_pyramid=2 / b_adapt=2 / b_bias=0 / direct=3 / weightb=1 / open_gop=0 / weightp=2 / keyint=250 / keyint_min=24 / scenecut=40 / intra_refresh=0 / rc_lookahead=250 / rc=crf / mbtree=0 / crf=16.8 / qcomp=0.60 / qpmin=0 / qpmax=69 / qpstep=4 / vbv_maxrate=62500 / vbv_bufsize=78125 / crf_max=0.0 / nal_hrd=none / filler=0 / ip_ratio=1.30 / pb_ratio=1.20 / aq=3:0.80
  25. Language                                 : English
  26. Default                                  : Yes
  27. Forced                                   : No
  28. Color range                              : Limited
  29. Color primaries                          : BT.709
  30. Matrix coefficients                      : BT.709
  31. Audio
  32. ID                                       : 2
  33. Format                                   : DTS
  34. Format/Info                              : Digital Theater Systems
  35. Codec ID                                 : A_DTS
  36. Duration                                 : 2 h 9 min
  37. Bit rate mode                            : Constant
  38. Bit rate                                 : 1 509 kb/s
  39. Channel(s)                               : 6 channels
  40. Channel layout                           : C L R Ls Rs LFE
  41. Sampling rate                            : 48.0 kHz
  42. Frame rate                               : 93.750 FPS (512 SPF)
  43. Bit depth                                : 24 bits
  44. Compression mode                         : Lossy
  45. Stream size                              : 1.36 GiB (27%)
  46. Language                                 : English
  47. Default                                  : Yes
  48. Forced                                   : No
  49. Text #1
  50. ID                                       : 3
  51. Format                                   : UTF-8
  52. Codec ID                                 : S_TEXT/UTF8
  53. Codec ID/Info                            : UTF-8 Plain Text
  54. Duration                                 : 2 h 0 min
  55. Bit rate                                 : 71 b/s
  56. Frame rate                               : 0.258 FPS
  57. Count of elements                        : 1862
  58. Stream size                              : 63.2 KiB (0%)
  59. Language                                 : English
  60. Default                                  : Yes
  61. Forced                                   : No
  62. Text #2
  63. ID                                       : 4
  64. Format                                   : UTF-8
  65. Codec ID                                 : S_TEXT/UTF8
  66. Codec ID/Info                            : UTF-8 Plain Text
  67. Duration                                 : 2 h 0 min
  68. Bit rate                                 : 75 b/s
  69. Frame rate                               : 0.272 FPS
  70. Count of elements                        : 1972
  71. Stream size                              : 67.3 KiB (0%)
  72. Title                                    : SDH
  73. Language                                 : English
  74. Default                                  : No
  75. Forced                                   : No
  76. Menu
  77. 00:00:00.000                             : en:Chapter 01
  78. 00:05:08.975                             : en:Chapter 02
  79. 00:10:08.441                             : en:Chapter 03
  80. 00:16:42.210                             : en:Chapter 04
  81. 00:24:04.193                             : en:Chapter 05
  82. 00:30:52.726                             : en:Chapter 06
  83. 00:38:18.671                             : en:Chapter 07
  84. 00:44:01.472                             : en:Chapter 08
  85. 00:51:38.554                             : en:Chapter 09
  86. 00:57:29.655                             : en:Chapter 10
  87. 01:10:16.712                             : en:Chapter 11
  88. 01:18:21.238                             : en:Chapter 12
  89. 01:23:29.504                             : en:Chapter 13
  90. 01:32:26.750                             : en:Chapter 14
  91. 01:36:46.884                             : en:Chapter 15
  92. 01:40:46.249                             : en:Chapter 16
  93. 01:46:01.438                             : en:Chapter 17
  94. 01:50:34.878                             : en:Chapter 18
  95. 01:57:02.390                             : en:Chapter 19
  96. 02:02:46.359                             : en:Chapter 20
复制代码











回复

使用道具 举报

懒得打字嘛,点击右侧快捷回复 【右侧内容,后台自定义】
您需要登录后才可以回帖 登录 | 立即加入

本版积分规则

Archiver|小黑屋| 蓝光电影网 |网站地图

Copyright © 2021 Comsenz Inc. Powered by 蓝光电影网

蓝光电影网

本站内容由用户自主分享和转载自互联网,转载目的在于传递更多信息,并不代表本网赞同其观点和对其真实性负责。

如有侵权、违反国家法律政策行为,请联系我们,我们会第一时间及时清除和处理!

举报反馈邮箱:[email protected]

快速回复 返回顶部 返回列表