找回密码

蓝光电影网

查看: 45|回复: 3

[剧情] 她说.She.Said.2022.720p.BluRay.x264-PiGNUS 5.13GB

[复制链接]
蓝光币
1080
发表于 2023-1-14 14:04:00 | 显示全部楼层 |阅读模式


◎标  题 她说
◎译  名 她有话要说(台)
◎片  名 She Said
◎年  代 2022
◎产  地 美国
◎类  别 剧情
◎语  言 英语
◎上映日期 2022-10-13(纽约电影节) / 2022-11-18(美国)
◎IMDb评分 7.4/10 (1968人评价)
◎IMDb链接 https://www.imdb.com/title/tt14807308/
◎豆瓣评分 8.2/10 (334人评价)
◎豆瓣链接 https://movie.douban.com/subject/35493136/
◎片  长 135分钟
◎导  演 玛丽亚·施拉德 Maria Schrader
◎编  剧 丽贝卡·伦科维茨 Rebecca Lenkiewicz
       乔迪·坎托尔 Jodi Kantor
       梅根·吐赫 Megan Twohey
       丽贝卡·科贝特 Rebecca Corbett
◎演  员 凯瑞·穆里根 Carey Mulligan
       佐伊·卡赞 Zoe Kazan
       派翠西娅·克拉克森 Patricia Clarkson
       安德鲁·布劳尔 Andre Braugher
       詹妮弗·艾莉 Jennifer Ehle
       安杰拉·耶奥 Angela Yeoh
       马伦·赫伊 Maren Heary
       肖恩·卡伦 Sean Cullen
       阿纳斯塔西娅·巴兹 Anastasia Barzee
       凯莉麦奎尔 Keilly McQuail
       希拉里·格瑞尔 Hilary Greer
       蒂娜·王-卢 Tina WongLu
       南希·艾伦·萧尔 Nancy Ellen Shore
       艾玛·奥康纳 Emma O'Connor
       埃尔·格雷厄姆 Elle Graham
       杰森·巴宾斯基 Jason Babinsky
       皮特·弗雷德曼 Peter Friedman
       朱迪丝·戈德雷什 Judith Godrèche
       扎克·格雷尼尔 Zach Grenier
       麦克·休斯顿 Mike Houston
       詹姆士·奥斯汀·约翰逊 James Austin Johnson
       艾什莉·贾德 Ashley Judd
       黛拉·纳普 Dalya Knapp
       玛伦·洛德 Maren Lord
       萨曼莎·莫顿 Samantha Morton
       汤姆·派福瑞 Tom Pelphrey
       亚当·沙皮罗 Adam Shapiro
       莫莉·温德索尔 Molly Windsor
       比尔·奥雷利 Bill O'Reilly
       汉斯约格·白里奇 Hansjörg Weißbrich
◎简  介
  故事聚焦《纽约时报》女记者乔迪·坎托尔(佐伊·卡赞 饰)与梅根·吐赫(凯瑞·穆里根 饰),她们联手撰写了这个世代最重要的一篇报道,进而激发#MeToo活动,不单揭发了好莱坞数十年来默许的性侵真相,也永久改变了美国文化。                                    
                                影片按照畅销书《她说:打破性骚扰的故事,帮助扑灭了一场活动》(She Said: Breaking the Sexual Harassment Story That Helped Ignite a Movement)改编。
  1. Video
  2. ID                                       : 1
  3. Format                                   : AVC
  4. Format/Info                              : Advanced Video Codec
  5. Format profile                           : [email protected]
  6. Format settings                          : CABAC / 8 Ref Frames
  7. Format settings, CABAC                   : Yes
  8. Format settings, Reference frames        : 8 frames
  9. Codec ID                                 : V_MPEG4/ISO/AVC
  10. Duration                                 : 2 h 9 min
  11. Bit rate                                 : 4 971 kb/s
  12. Width                                    : 1 280 pixels
  13. Height                                   : 694 pixels
  14. Display aspect ratio                     : 1.85:1
  15. Frame rate mode                          : Constant
  16. Frame rate                               : 23.976 (24000/1001) FPS
  17. Color space                              : YUV
  18. Chroma subsampling                       : 4:2:0
  19. Bit depth                                : 8 bits
  20. Scan type                                : Progressive
  21. Bits/(Pixel*Frame)                       : 0.233
  22. Stream size                              : 4.49 GiB (87%)
  23. Writing library                          : x264 core 164 r3103 941cae6
  24. Encoding settings                        : cabac=1 / ref=8 / deblock=1:-3:-3 / analyse=0x3:0x133 / me=umh / subme=9 / psy=1 / psy_rd=1.00:0.00 / mixed_ref=1 / me_range=16 / chroma_me=1 / trellis=2 / 8x8dct=1 / cqm=0 / deadzone=21,11 / fast_pskip=1 / chroma_qp_offset=-2 / threads=22 / lookahead_threads=1 / sliced_threads=0 / nr=0 / decimate=1 / interlaced=0 / bluray_compat=0 / constrained_intra=0 / bframes=3 / b_pyramid=2 / b_adapt=2 / b_bias=0 / direct=3 / weightb=1 / open_gop=0 / weightp=2 / keyint=250 / keyint_min=23 / scenecut=40 / intra_refresh=0 / rc_lookahead=60 / rc=crf / mbtree=1 / crf=14.5 / qcomp=0.60 / qpmin=0 / qpmax=69 / qpstep=4 / ip_ratio=1.40 / aq=1:1.00
  25. Default                                  : Yes
  26. Forced                                   : No
  27. Audio
  28. ID                                       : 2
  29. Format                                   : AC-3
  30. Format/Info                              : Audio Coding 3
  31. Commercial name                          : Dolby Digital
  32. Codec ID                                 : A_AC3
  33. Duration                                 : 2 h 9 min
  34. Bit rate mode                            : Constant
  35. Bit rate                                 : 640 kb/s
  36. Channel(s)                               : 6 channels
  37. Channel layout                           : L R C LFE Ls Rs
  38. Sampling rate                            : 48.0 kHz
  39. Frame rate                               : 31.250 FPS (1536 SPF)
  40. Compression mode                         : Lossy
  41. Stream size                              : 591 MiB (11%)
  42. Language                                 : English
  43. Service kind                             : Complete Main
  44. Default                                  : Yes
  45. Forced                                   : No
  46. Text #1
  47. ID                                       : 3
  48. Format                                   : PGS
  49. Muxing mode                              : zlib
  50. Codec ID                                 : S_HDMV/PGS
  51. Codec ID/Info                            : Picture based subtitle format used on BDs/HD-DVDs
  52. Duration                                 : 2 h 0 min
  53. Bit rate                                 : 53.4 kb/s
  54. Count of elements                        : 4004
  55. Stream size                              : 46.2 MiB (1%)
  56. Title                                    : English SDH
  57. Language                                 : English
  58. Default                                  : No
  59. Forced                                   : No
  60. Text #2
  61. ID                                       : 4
  62. Format                                   : PGS
  63. Muxing mode                              : zlib
  64. Codec ID                                 : S_HDMV/PGS
  65. Codec ID/Info                            : Picture based subtitle format used on BDs/HD-DVDs
  66. Duration                                 : 2 h 8 min
  67. Bit rate                                 : 47.8 kb/s
  68. Count of elements                        : 3952
  69. Stream size                              : 43.7 MiB (1%)
  70. Title                                    : Spanish
  71. Language                                 : Spanish
  72. Default                                  : No
  73. Forced                                   : No
  74. Text #3
  75. ID                                       : 5
  76. Format                                   : PGS
  77. Muxing mode                              : zlib
  78. Codec ID                                 : S_HDMV/PGS
  79. Codec ID/Info                            : Picture based subtitle format used on BDs/HD-DVDs
  80. Duration                                 : 2 h 8 min
  81. Bit rate                                 : 50.3 kb/s
  82. Count of elements                        : 3946
  83. Stream size                              : 46.1 MiB (1%)
  84. Title                                    : French
  85. Language                                 : French
  86. Default                                  : No
  87. Forced                                   : No
  88. Text #4
  89. ID                                       : 6
  90. Format                                   : PGS
  91. Muxing mode                              : zlib
  92. Codec ID                                 : S_HDMV/PGS
  93. Codec ID/Info                            : Picture based subtitle format used on BDs/HD-DVDs
  94. Duration                                 : 2 h 4 min
  95. Bit rate                                 : 509 b/s
  96. Count of elements                        : 30
  97. Stream size                              : 463 KiB (0%)
  98. Title                                    : Spanish
  99. Language                                 : Spanish
  100. Default                                  : No
  101. Forced                                   : No
  102. Text #5
  103. ID                                       : 7
  104. Format                                   : PGS
  105. Muxing mode                              : zlib
  106. Codec ID                                 : S_HDMV/PGS
  107. Codec ID/Info                            : Picture based subtitle format used on BDs/HD-DVDs
  108. Duration                                 : 2 h 8 min
  109. Bit rate                                 : 2 167 b/s
  110. Count of elements                        : 136
  111. Stream size                              : 1.99 MiB (0%)
  112. Title                                    : French
  113. Language                                 : French
  114. Default                                  : No
  115. Forced                                   : No
  116. Menu
  117. 00:00:00.000                             : en:Chapter 01
  118. 00:05:08.975                             : en:Chapter 02
  119. 00:10:08.441                             : en:Chapter 03
  120. 00:16:42.210                             : en:Chapter 04
  121. 00:24:04.193                             : en:Chapter 05
  122. 00:30:52.726                             : en:Chapter 06
  123. 00:38:18.671                             : en:Chapter 07
  124. 00:44:01.472                             : en:Chapter 08
  125. 00:51:38.554                             : en:Chapter 09
  126. 00:57:29.655                             : en:Chapter 10
  127. 01:10:16.712                             : en:Chapter 11
  128. 01:18:21.238                             : en:Chapter 12
  129. 01:23:29.504                             : en:Chapter 13
  130. 01:32:26.750                             : en:Chapter 14
  131. 01:36:46.884                             : en:Chapter 15
  132. 01:40:46.249                             : en:Chapter 16
  133. 01:46:01.438                             : en:Chapter 17
  134. 01:50:34.878                             : en:Chapter 18
  135. 01:57:02.390                             : en:Chapter 19
  136. 02:02:46.359                             : en:Chapter 20
  137. 02:09:10.493                             : en:Chapter 21
复制代码









回复

使用道具 举报

蓝光币
229
发表于 2023-1-15 03:18:10 | 显示全部楼层
多谢楼主的分享啦
回复 支持 反对

使用道具 举报

蓝光币
215
发表于 2023-1-15 12:41:44 | 显示全部楼层
楼主发贴辛苦了,谢谢楼主分享!我觉得蓝光电影网是注册对了!
回复 支持 反对

使用道具 举报

蓝光币
78
发表于 2023-1-15 15:02:20 | 显示全部楼层
好片,感谢楼主上传分享
回复 支持 反对

使用道具 举报

懒得打字嘛,点击右侧快捷回复 【右侧内容,后台自定义】
您需要登录后才可以回帖 登录 | 立即加入

本版积分规则

Archiver|小黑屋| 蓝光电影网 |网站地图

Copyright © 2021 Comsenz Inc. Powered by 蓝光电影网

蓝光电影网

本站内容由用户自主分享和转载自互联网,转载目的在于传递更多信息,并不代表本网赞同其观点和对其真实性负责。

如有侵权、违反国家法律政策行为,请联系我们,我们会第一时间及时清除和处理!

举报反馈邮箱:[email protected]

快速回复 返回顶部 返回列表