找回密码

查看: 2506|回复: 1

[剧情] 敦刻尔克/敦刻尔克大撤退 Dunkirk.2017.1080p.BluRay.x264-SPARKS 8.74GB

[复制链接]
蓝光币
1982
发表于 2017-12-20 16:29:00 | 显示全部楼层 |阅读模式
103409zswch5fhprqfwr9v.jpg
◎译  名 敦刻尔克 / 敦刻尔克大退却 / 敦克尔克大行动 / 邓寇克大行动
◎片  名 敦刻尔克 Dunkirk
◎年  代 2017
◎国  家 英国 / 法国 / 美国 / 荷兰
◎类  别 剧情 / 历史 / 战争
◎语  言 英语 / 法语 / 德语
◎上映日期 2017-09-01(中国大陆) / 2017-07-13(伦敦首映) / 2017-07-21(美国)
◎IMDb评分  8.3/10 from 238,357 users
◎IMDb链接  http://www.imdb.com/title/tt5013056/
◎豆瓣评分 8.6/10 from 230499 users
◎豆瓣链接 https://movie.douban.com/subject/26607693/
◎片  长 107分钟
◎导  演 克里斯托弗·诺兰
◎主  演 菲恩·怀特海德 Fionn Whitehead
      汤姆·格林-卡尼 Tom Glynn-Carney
      杰克·劳登 Jack Lowden
      哈里·斯泰尔斯 Harry Styles
      阿奈林·巴纳德 Aneurin Barnard
      汤姆·哈迪 Tom Hardy
      马克·里朗斯 Mark Rylance
      巴里·基奥汉 Barry Keoghan
      基里安·墨菲 Cillian Murphy
      詹姆斯·达西 James D'Arcy
      肯尼思·布拉纳 Kenneth Branagh
      李·阿姆斯特朗 Lee Armstrong
      詹姆斯·布鲁尔 James Bloor
      达米安·勃纳尔 Damien Bonnard
      布莱恩·威纳尔 Brian Vernel
      哈利·理查森 Harry Richardson
      艾略特·提特恩索 Elliott Tittensor
      凯文·格思里 Kevin Guthrie
      巴比·洛克伍德 Bobby Lockwood
      米歇尔·贝尔 Michel Biel
      比利·豪尔 Billy Howle
      迈克尔·凯恩 Michael Caine
      约翰·诺兰 John Nolan
      米兰达·诺兰 Miranda Nolan

◎简  介 

  故事改编自著名的二战军事事务“敦刻尔克大退却”。二战早期,40万英法盟军被敌军围困于敦刻尔克的海滩之上,面临敌军步步逼近的绝境,情势万分危机。英国政府和水兵策动多量船员,带动群众起来救援军队。
  英国兵士汤米(菲昂·怀特海德 Fionn Whitehead 饰)在逃离海滩的进程中相继结识吉布森与亚历克斯,同时民用船主道森师长(马克·里朗斯 Mark Rylance 饰)与儿子彼得、17岁少年乔治也分开英国,去往敦刻尔克拯救兵士。三人连续搭救了水兵(基里安·墨菲 Cillian Murphy 饰)、飞翔员柯林斯及汤米一行人,而战役机飞翔员法瑞尔(汤姆·哈迪 Tom Hardy 饰)则在被仇敌双面夹攻的艰难情形下顽强战役。
  影片的故事从陆、海、空三个角度报告,在德国军队的包围下,每小我不能不为自己的命运破釜沉舟,才有能够在世回家。

◎获奖情况 

  第89届美国国家批评协会奖 (2017)
  年度佳片

  第22届金卫星奖 (2018)
  电影部分 最好影片(提名)
  电影部分 最好导演(提名) 克里斯托弗·诺兰
  电影部分 最好男配角(提名) 马克·里朗斯
  电影部分 最好原创剧本(提名) 克里斯托弗·诺兰
  电影部分 最好原创配乐(提名) 汉斯·季默
  电影部分 最好摄影(提名) 霍伊特·范·霍特玛
  电影部分 最好视觉结果(提名)
  电影部分 最好剪辑(提名) 李·史姑娘
  电影部分 最好音效(提名)
  电影部分 最好美术指导(提名)
  电影部分 最好打扮设想(提名) 杰弗里·库兰

  第43届洛杉矶影评人协会奖 (2017)
  最好剪辑 李·史姑娘

  第3届豆瓣电影年度榜单 (2016)
  最值得期待的外语电影(提名)



  1. Video
  2. ID                                       : 1
  3. Format                                   : AVC
  4. Format/Info                              : Advanced Video Codec
  5. Format profile                           : [email]High@L4.1[/email]
  6. Format settings                          : CABAC / 4 Ref Frames
  7. Format settings, CABAC                   : Yes
  8. Format settings, RefFrames               : 4 frames
  9. Codec ID                                 : V_MPEG4/ISO/AVC
  10. Duration                                 : 1 h 46 min
  11. Bit rate                                 : 10.2 Mb/s
  12. Width                                    : 1 920 pixels
  13. Height                                   : 1 080 pixels
  14. Display aspect ratio                     : 16:9
  15. Frame rate mode                          : Constant
  16. Frame rate                               : 23.976 (24000/1001) FPS
  17. Color space                              : YUV
  18. Chroma subsampling                       : 4:2:0
  19. Bit depth                                : 8 bits
  20. Scan type                                : Progressive
  21. Bits/(Pixel*Frame)                       : 0.206
  22. Stream size                              : 7.61GB (87%)
  23. Writing library                          : x264 core 152 r2851 ba24899
  24. Encoding settings                        : cabac=1 / ref=4 / deblock=1:-3:-3 / analyse=0x3:0x113 / me=umh / subme=8 / psy=1 / psy_rd=1.00:0.00 / mixed_ref=1 / me_range=16 / chroma_me=1 / trellis=1 / 8x8dct=1 / cqm=0 / deadzone=21,11 / fast_pskip=1 / chroma_qp_offset=-2 / threads=30 / lookahead_threads=5 / sliced_threads=0 / nr=0 / decimate=1 / interlaced=0 / bluray_compat=0 / constrained_intra=0 / bframes=3 / b_pyramid=2 / b_adapt=1 / b_bias=0 / direct=3 / weightb=1 / open_gop=0 / weightp=2 / keyint=240 / keyint_min=24 / scenecut=40 / intra_refresh=0 / rc_lookahead=50 / rc=2pass / mbtree=1 / bitrate=10225 / ratetol=1.0 / qcomp=0.60 / qpmin=0 / qpmax=69 / qpstep=4 / cplxblur=20.0 / qblur=0.5 / ip_ratio=1.40 / aq=1:1.00
  25. Default                                  : Yes
  26. Forced                                   : No

  27. Audio
  28. ID                                       : 2
  29. Format                                   : DTS
  30. Format/Info                              : Digital Theater Systems
  31. Mode                                     : 16
  32. Format settings, Endianness              : Big
  33. Codec ID                                 : A_DTS
  34. Duration                                 : 1 h 46 min
  35. Bit rate mode                            : Constant
  36. Bit rate                                 : 1 509 kb/s
  37. Channel(s)                               : 6 channels
  38. Channel positions                        : Front: L C R, Side: L R, LFE
  39. Sampling rate                            : 48.0 kHz
  40. Frame rate                               : 93.750 FPS (512 SPF)
  41. Bit depth                                : 24 bits
  42. Compression mode                         : Lossy
  43. Stream size                              : 1.12GB (13%)
  44. Language                                 : English
  45. Default                                  : Yes
  46. Forced                                   : No

  47. Text #1
  48. ID                                       : 3
  49. Format                                   : UTF-8
  50. Codec ID                                 : S_TEXT/UTF8
  51. Codec ID/Info                            : UTF-8 Plain Text
  52. Duration                                 : 1 h 43 min
  53. Bit rate                                 : 24 b/s
  54. Count of elements                        : 694
  55. Stream size                              : 18.5 KiB (0%)
  56. Language                                 : English
  57. Default                                  : No
  58. Forced                                   : No

  59. Text #2
  60. ID                                       : 4
  61. Format                                   : UTF-8
  62. Codec ID                                 : S_TEXT/UTF8
  63. Codec ID/Info                            : UTF-8 Plain Text
  64. Duration                                 : 1 h 45 min
  65. Bit rate                                 : 29 b/s
  66. Count of elements                        : 859
  67. Stream size                              : 22.7 KiB (0%)
  68. Title                                    : SDH
  69. Language                                 : English
  70. Default                                  : No
  71. Forced                                   : No

  72. Menu
  73. 00:00:00.000                             : en:00:00:00.000
  74. 00:08:51.364                             : en:00:08:51.364
  75. 00:20:13.754                             : en:00:20:13.754
  76. 00:29:07.621                             : en:00:29:07.621
  77. 00:42:35.261                             : en:00:42:35.261
  78. 00:52:48.207                             : en:00:52:48.207
  79. 01:04:32.827                             : en:01:04:32.827
  80. 01:12:50.825                             : en:01:12:50.825
  81. 01:25:55.025                             : en:01:25:55.025
  82. 01:33:23.348                             : en:01:33:23.348
  83. 01:39:13.906                             : en:01:39:13.906




复制代码
复制代码
103409lx80dk8uuy0ijoj8.jpg






回复

使用道具 举报

懒得打字嘛,点击右侧快捷回复 【右侧内容,后台自定义】
您需要登录后才可以回帖 登录 | 立即加入

本版积分规则

Archiver| |网站地图

Copyright © 2024 Comsenz Inc. Powered by 蓝光电影网

本站内容由用户自主分享和转载自互联网,转载目的在于传递更多信息,并不代表本网赞同其观点和对其真实性负责。

如有侵权、违反国家法律政策行为,请联系我们,我们会第一时间及时清除和处理!

举报反馈邮箱:4k1080.com@gmail.com

快速回复 返回顶部 返回列表