找回密码

查看: 2171|回复: 0

[剧情] 被掩盖的时间/模糊时间 Vanishing.Time.A.Boy.Who.Returned.2016.KOREAN.1080p.BluRay.REMUX.AVC.DTS-HD.MA.5.1-FGT 30.70GB

[复制链接]
蓝光币
1992
发表于 2017-12-21 09:58:17 | 显示全部楼层 |阅读模式
121735h0j6jelx2zidjjjj.jpg
◎译  名 被袒护的时候 / 模糊时候 / 被粉饰的时候 / 被遮蔽的时候 / Vanishing Time: A Boy Who Returned
◎片  名 被袒护的时候 ??? ??
◎年  代 2016
◎国  家 韩国
◎类  别 剧情 / 恋爱 / 奇异
◎语  言 韩语
◎上映日期 2016-11-16(韩国)
◎IMDb评分7.4/10 from 305 users
◎IMDb链接http://www.imdb.com/title/tt6273736/
◎豆瓣评分 7.5/10 from 5757 users
◎豆瓣链接 https://movie.douban.com/subject/26527937/
◎片  长 130分钟
◎导  演 严泰华
◎主  演 姜栋元 Dong-won Kang
      申银秀 Eun-Soo Shin
      李孝熙 Hyo-je Lee

◎简  介 

  一群小伙伴到山里去顽耍只要女孩被救出,而几天以后失落的少年忽然酿成成人的样子返来……



  1. Video
  2. ID             : 1
  3. Format           : AVC
  4. Format/Info          : Advanced Video Codec
  5. Format profile         : [email]High@L4.1[/email]
  6. Format settings, CABAC       : Yes
  7. Format settings, ReFrames      : 4 frames
  8. Codec ID           : V_MPEG4/ISO/AVC
  9. Duration           : 2 h 13 min
  10. Bit rate mode          : Variable
  11. Maximum bit rate         : 33.0 Mb/s
  12. Width            : 1 920 pixels
  13. Height           : 1 080 pixels
  14. Display aspect ratio       : 16:9
  15. Frame rate mode        : Constant
  16. Frame rate           : 23.976 (24000/1001) FPS
  17. Standard           : NTSC
  18. Color space          : YUV
  19. Chroma subsampling       : 4:2:0
  20. Bit depth          : 8 bits
  21. Scan type          : Progressive
  22. Title            : Vanishing.Time.A.Boy.Who.Returned.2016.KOREAN.1080p.BluRay.REMUX.AVC.DTS-HD.MA.5.1-FGT
  23. Language           : English
  24. Default            : No
  25. Forced           : No
  26. Color range          : Limited
  27. Color primaries        : BT.709
  28. Transfer characteristics     : BT.709
  29. Matrix coefficients        : BT.709

  30. Audio #1
  31. ID             : 2
  32. Format           : DTS
  33. Format/Info          : Digital Theater Systems
  34. Format profile         : MA / Core
  35. Mode             : 16
  36. Format settings, Endianness    : Big
  37. Codec ID           : A_DTS
  38. Duration           : 2 h 13 min
  39. Bit rate mode          : Variable / Constant
  40. Bit rate           : Unknown / 1 509 kb/s
  41. Channel(s)           : 6 channels
  42. Channel positions        : Front: L C R, Side: L R, LFE
  43. Sampling rate          : 48.0 kHz
  44. Frame rate           : 93.750 FPS (512 spf)
  45. Bit depth          : 24 bits
  46. Compression mode         : Lossless / Lossy
  47. Title            : Vanishing.Time.A.Boy.Who.Returned.2016.KOREAN.1080p.BluRay.REMUX.AVC.DTS-HD.MA.5.1-FGT
  48. Language           : Korean
  49. Default            : Yes
  50. Forced           : No

  51. Audio #2
  52. ID             : 3
  53. Format           : DTS
  54. Format/Info          : Digital Theater Systems
  55. Mode             : 16
  56. Format settings, Endianness    : Big
  57. Codec ID           : A_DTS
  58. Duration           : 2 h 13 min
  59. Bit rate mode          : Constant
  60. Bit rate           : 1 509 kb/s
  61. Channel(s)           : 6 channels
  62. Channel positions        : Front: L C R, Side: L R, LFE
  63. Sampling rate          : 48.0 kHz
  64. Frame rate           : 93.750 FPS (512 spf)
  65. Bit depth          : 24 bits
  66. Compression mode         : Lossy
  67. Stream size          : 1.41GB (5%)
  68. Title            : Vanishing.Time.A.Boy.Who.Returned.2016.KOREAN.1080p.BluRay.REMUX.AVC.DTS-HD.MA.5.1-FGT
  69. Language           : Korean
  70. Default            : No
  71. Forced           : No

  72. Audio #3
  73. ID             : 4
  74. Format           : AC-3
  75. Format/Info          : Audio Coding 3
  76. Format settings, Endianness    : Big
  77. Codec ID           : A_AC3
  78. Duration           : 2 h 13 min
  79. Bit rate mode          : Constant
  80. Bit rate           : 320 kb/s
  81. Channel(s)           : 2 channels
  82. Channel positions        : Front: L R
  83. Sampling rate          : 48.0 kHz
  84. Frame rate           : 31.250 FPS (1536 spf)
  85. Bit depth          : 16 bits
  86. Compression mode         : Lossy
  87. Stream size          : 306 MiB (1%)
  88. Title            : Vanishing.Time.A.Boy.Who.Returned.2016.KOREAN.1080p.BluRay.REMUX.AVC.DTS-HD.MA.5.1-FGT
  89. Language           : Korean
  90. Service kind         : Commentary
  91. Default            : No
  92. Forced           : No

  93. Audio #4
  94. ID             : 5
  95. Format           : AC-3
  96. Format/Info          : Audio Coding 3
  97. Format settings, Endianness    : Big
  98. Codec ID           : A_AC3
  99. Duration           : 2 h 13 min
  100. Bit rate mode          : Constant
  101. Bit rate           : 320 kb/s
  102. Channel(s)           : 2 channels
  103. Channel positions        : Front: L R
  104. Sampling rate          : 48.0 kHz
  105. Frame rate           : 31.250 FPS (1536 spf)
  106. Bit depth          : 16 bits
  107. Compression mode         : Lossy
  108. Stream size          : 306 MiB (1%)
  109. Title            : Vanishing.Time.A.Boy.Who.Returned.2016.KOREAN.1080p.BluRay.REMUX.AVC.DTS-HD.MA.5.1-FGT
  110. Language           : Korean
  111. Service kind         : Commentary
  112. Default            : No
  113. Forced           : No

  114. Text #1
  115. ID             : 6
  116. Format           : PGS
  117. Muxing mode          : zlib
  118. Codec ID           : S_HDMV/PGS
  119. Codec ID/Info          : Picture based subtitle format used on BDs/HD-DVDs
  120. Title            : English-PGS
  121. Language           : English
  122. Default            : Yes
  123. Forced           : No

  124. Text #2
  125. ID             : 7
  126. Format           : PGS
  127. Muxing mode          : zlib
  128. Codec ID           : S_HDMV/PGS
  129. Codec ID/Info          : Picture based subtitle format used on BDs/HD-DVDs
  130. Title            : Korean-PGS
  131. Language           : Korean
  132. Default            : No
  133. Forced           : No

  134. Menu
  135. 00:00:00.000         : en:Chapter 01
  136. 00:06:56.040         : en:Chapter 02
  137. 00:14:15.104         : en:Chapter 03
  138. 00:20:07.748         : en:Chapter 04
  139. 00:28:07.644         : en:Chapter 05
  140. 00:36:10.084         : en:Chapter 06
  141. 00:44:26.538         : en:Chapter 07
  142. 00:56:09.366         : en:Chapter 08
  143. 01:05:07.862         : en:Chapter 09
  144. 01:15:18.472         : en:Chapter 10
  145. 01:25:34.671         : en:Chapter 11
  146. 01:37:03.275         : en:Chapter 12
  147. 01:44:28.178         : en:Chapter 13
  148. 01:53:32.847         : en:Chapter 14
  149. 02:00:01.485         : en:Chapter 15
  150. 02:06:37.423         : en:Chapter 16
  151. 02:10:00.626         : en:Chapter 17



复制代码
复制代码
121735wiv74spksvaz4p4v.jpg 121735npd3eeprsoep9c29.jpg 121735iesrvrsys6ve8gtv.jpg 121735pd7q5tiktr7td7zd.jpg 121735j7hcq9s7096d9dqn.jpg 121735to7z6inlqgn5gg5q.jpg




回复

使用道具 举报

懒得打字嘛,点击右侧快捷回复 【右侧内容,后台自定义】
您需要登录后才可以回帖 登录 | 立即加入

本版积分规则

Archiver| |网站地图

Copyright © 2024 Comsenz Inc. Powered by 蓝光电影网

本站内容由用户自主分享和转载自互联网,转载目的在于传递更多信息,并不代表本网赞同其观点和对其真实性负责。

如有侵权、违反国家法律政策行为,请联系我们,我们会第一时间及时清除和处理!

举报反馈邮箱:4k1080.com@gmail.com

快速回复 返回顶部 返回列表