找回密码

查看: 1759|回复: 0

[惊悚] 情书 Love.Letters.1983.1080p.BluRay.REMUX.AVC.DTS-HD.MA.2.0-FGT 18.74GB

[复制链接]
蓝光币
2048
发表于 2019-9-26 15:28:52 | 显示全部楼层 |阅读模式


◎译  名 情书
◎片  名 Love Letters
◎年  代 1983
◎产  地 美国
◎类  别 惊悚
◎语  言 英语
◎上映日期 1984-01-27
◎IMDb评分  6.0/10 from 576 users
◎IMDb链接  http://www.imdb.com/title/tt0085871
◎豆瓣评分 0/10 from 0 users
◎豆瓣链接 https://movie.douban.com/subject/1297779/
◎片  长 98 分钟
◎导  演 Amy Holden Jones
◎编  剧 Amy Holden Jones
◎主  演 杰米·李·柯蒂斯 Jamie Lee Curtis
       Bonnie Bartlett
       Matt Clark

◎标  签 杰米·李·柯蒂斯 | 美国电影 | 恋爱 | 1983 | 惊悚片 | 美国 | 电影 | 未下载
◎简  介  
  暂无相关剧情先容
  1. Video
  2. ID                                       : 1
  3. Format                                   : AVC
  4. Format/Info                              : Advanced Video Codec
  5. Format profile                           : [email protected]
  6. Format settings                          : CABAC / 4 Ref Frames
  7. Format settings, CABAC                   : Yes
  8. Format settings, Reference frames        : 4 frames
  9. Format settings, GOP                     : M=3, N=12
  10. Codec ID                                 : V_MPEG4/ISO/AVC
  11. Duration                                 : 1 h 28 min
  12. Bit rate mode                            : Variable
  13. Bit rate                                 : 28.5 Mb/s
  14. Maximum bit rate                         : 33.6 Mb/s
  15. Width                                    : 1 920 pixels
  16. Height                                   : 1 080 pixels
  17. Display aspect ratio                     : 16:9
  18. Frame rate mode                          : Constant
  19. Frame rate                               : 24.000 FPS
  20. Color space                              : YUV
  21. Chroma subsampling                       : 4:2:0
  22. Bit depth                                : 8 bits
  23. Scan type                                : Progressive
  24. Bits/(Pixel*Frame)                       : 0.573
  25. Stream size                              : 17.6 GiB (94%)
  26. Title                                    : Love.Letters.1983.1080p.BluRay.REMUX.AVC.DTS-HD.MA.2.0-FGT
  27. Language                                 : English
  28. Default                                  : No
  29. Forced                                   : No
  30. Color range                              : Limited
  31. Color primaries                          : BT.709
  32. Transfer characteristics                 : BT.709
  33. Matrix coefficients                      : BT.709
  34. Audio
  35. ID                                       : 2
  36. Format                                   : DTS XLL
  37. Format/Info                              : Digital Theater Systems
  38. Commercial name                          : DTS-HD Master Audio
  39. Codec ID                                 : A_DTS
  40. Duration                                 : 1 h 28 min
  41. Bit rate mode                            : Variable
  42. Bit rate                                 : 1 877 kb/s
  43. Channel(s)                               : 2 channels
  44. Channel layout                           : L R
  45. Sampling rate                            : 48.0 kHz
  46. Frame rate                               : 93.750 FPS (512 SPF)
  47. Bit depth                                : 24 bits
  48. Compression mode                         : Lossless
  49. Stream size                              : 1.16 GiB (6%)
  50. Title                                    : Love.Letters.1983.1080p.BluRay.REMUX.AVC.DTS-HD.MA.2.0-FGT
  51. Language                                 : English
  52. Default                                  : Yes
  53. Forced                                   : No
  54. Text
  55. ID                                       : 3
  56. Format                                   : PGS
  57. Muxing mode                              : zlib
  58. Codec ID                                 : S_HDMV/PGS
  59. Codec ID/Info                            : Picture based subtitle format used on BDs/HD-DVDs
  60. Duration                                 : 1 h 27 min
  61. Bit rate                                 : 18.9 kb/s
  62. Count of elements                        : 2685
  63. Stream size                              : 11.9 MiB (0%)
  64. Title                                    : English-PGS
  65. Language                                 : English
  66. Default                                  : Yes
  67. Forced                                   : No
  68. Menu
  69. 00:00:00.000                             : en:Chapter 01
  70. 00:05:44.583                             : en:Chapter 02
  71. 00:10:58.125                             : en:Chapter 03
  72. 00:16:40.625                             : en:Chapter 04
  73. 00:21:49.375                             : en:Chapter 05
  74. 00:27:10.333                             : en:Chapter 06
  75. 00:31:12.625                             : en:Chapter 07
  76. 00:37:43.583                             : en:Chapter 08
  77. 00:44:28.750                             : en:Chapter 09
  78. 00:51:06.666                             : en:Chapter 10
  79. 00:58:46.958                             : en:Chapter 11
  80. 01:09:22.708                             : en:Chapter 12
  81. 01:20:40.000                             : en:Chapter 13
复制代码






                                       
                                       

                                       
                                       
                                       




回复

使用道具 举报

懒得打字嘛,点击右侧快捷回复 【右侧内容,后台自定义】
您需要登录后才可以回帖 登录 | 立即加入

本版积分规则

Archiver| |网站地图

Copyright © 2024 Comsenz Inc. Powered by 蓝光电影网

本站内容由用户自主分享和转载自互联网,转载目的在于传递更多信息,并不代表本网赞同其观点和对其真实性负责。

如有侵权、违反国家法律政策行为,请联系我们,我们会第一时间及时清除和处理!

举报反馈邮箱:4k1080.com@gmail.com

快速回复 返回顶部 返回列表