找回密码

查看: 1292|回复: 0

[2160p-WEB] 正义黑客[中文字幕].The.Takeover.2022.DUTCH.2160p.NF.WEB-DL.DDP5.1.DV.MP4.x265-DVSUX 11.33GB

[复制链接]
蓝光币
1840
发表于 2023-1-2 14:57:41 | 显示全部楼层 |阅读模式


◎标  题 正义黑客
◎译  名 黑客英雌 / 接收
◎片  名 The Takeover
◎年  代 2022
◎产  地 荷兰
◎类  别 行动 / 惊悚
◎语  言 荷兰语 / 英语
◎上映日期 2022-11-01(奈飞收集)
◎IMDb评分 5.2/10 (3356人评价)
◎IMDb链接 https://www.imdb.com/title/tt18082758/
◎豆瓣评分 4.7/10 (151人评价)
◎豆瓣链接 https://movie.douban.com/subject/36118242/
◎片  长 87分钟
◎导  演 安玛丽·范·德蒙 Annemarie van de Mond
◎编  剧 Tijs van Marle Tijs van Marle
◎演  员 盖扎·威兹 Geza Weisz
       弗兰克·拉默斯 Frank Lammers
       苏珊·雷德尔 Susan Radder
       Walid Benmbarek Walid Benmbarek
        Jenny Hsia
◎简  介
  自诩为道德黑客的梅尔·班迪森阻止了一路数据泄露事务,同时也封闭了一个国际犯罪收集,这让她的生活发生了天翻地覆的变化。然后她就成为了方针,并被一段深度捏造的视频“显现”她谋杀了某人。她在一个相亲时熟悉的熟人帮助下开启流亡生活,然后尽一切尽力证实自己的明净。
  1. Video
  2. ID                                       : 1
  3. Format                                   : HEVC
  4. Format/Info                              : High Efficiency Video Coding
  5. Format profile                           : Main 10@L5@Main
  6. HDR format                               : Dolby Vision, Version 1.0, dvhe.05.07, BL+RPU
  7. Codec ID                                 : dvhe
  8. Codec ID/Info                            : High Efficiency Video Coding with Dolby Vision
  9. Duration                                 : 1 h 28 min
  10. Bit rate                                 : 17.7 Mb/s
  11. Width                                    : 3 840 pixels
  12. Height                                   : 2 160 pixels
  13. Display aspect ratio                     : 16:9
  14. Frame rate mode                          : Constant
  15. Frame rate                               : 25.000 FPS
  16. Color space                              : YUV
  17. Chroma subsampling                       : 4:2:0
  18. Bit depth                                : 10 bits
  19. Bits/(Pixel*Frame)                       : 0.085
  20. Stream size                              : 10.9 GiB (96%)
  21. Default                                  : Yes
  22. Alternate group                          : 1
  23. Encoded date                             : UTC 2023-01-01 14:12:46
  24. Tagged date                              : UTC 2023-01-01 14:15:17
  25. Color range                              : Full
  26. Codec configuration box                  : hvcC+dvcC
  27. Audio
  28. ID                                       : 2
  29. Format                                   : E-AC-3
  30. Format/Info                              : Enhanced AC-3
  31. Commercial name                          : Dolby Digital Plus
  32. Codec ID                                 : ec-3
  33. Duration                                 : 1 h 28 min
  34. Bit rate mode                            : Constant
  35. Bit rate                                 : 640 kb/s
  36. Maximum bit rate                         : 676 kb/s
  37. Channel(s)                               : 6 channels
  38. Channel layout                           : L R C LFE Ls Rs
  39. Sampling rate                            : 48.0 kHz
  40. Frame rate                               : 31.250 FPS (1536 SPF)
  41. Compression mode                         : Lossy
  42. Stream size                              : 405 MiB (3%)
  43. Title                                    : English
  44. Language                                 : English
  45. Service kind                             : Complete Main
  46. Default                                  : Yes
  47. Alternate group                          : 1
  48. Tagged date                              : UTC 2023-01-01 14:15:17
  49. Text #1
  50. ID                                       : 3
  51. Format                                   : Timed Text
  52. Codec ID                                 : tx3g
  53. Duration                                 : 1 h 26 min
  54. Bit rate mode                            : Variable
  55. Bit rate                                 : 43 b/s
  56. Frame rate                               : 0.305 FPS
  57. Stream size                              : 27.6 KiB (0%)
  58. Title                                    : English
  59. Language                                 : English
  60. Forced                                   : No
  61. Encoded date                             : UTC 2023-01-01 14:15:14
  62. Tagged date                              : UTC 2023-01-01 14:15:17
  63. Text #2
  64. ID                                       : 4
  65. Format                                   : Timed Text
  66. Codec ID                                 : tx3g
  67. Duration                                 : 1 h 25 min
  68. Bit rate mode                            : Variable
  69. Bit rate                                 : 76 b/s
  70. Frame rate                               : 0.525 FPS
  71. Stream size                              : 48.0 KiB (0%)
  72. Title                                    : English
  73. Language                                 : English
  74. Forced                                   : No
  75. Encoded date                             : UTC 2023-01-01 14:15:14
  76. Tagged date                              : UTC 2023-01-01 14:15:17
  77. Text #3
  78. ID                                       : 5
  79. Format                                   : Timed Text
  80. Codec ID                                 : tx3g
  81. Duration                                 : 1 h 24 min
  82. Bit rate mode                            : Variable
  83. Bit rate                                 : 64 b/s
  84. Frame rate                               : 0.426 FPS
  85. Stream size                              : 39.3 KiB (0%)
  86. Title                                    : English
  87. Language                                 : English
  88. Forced                                   : No
  89. Encoded date                             : UTC 2023-01-01 14:15:14
  90. Tagged date                              : UTC 2023-01-01 14:15:17
  91. Text #4
  92. ID                                       : 6
  93. Format                                   : Timed Text
  94. Codec ID                                 : tx3g
  95. Duration                                 : 1 h 26 min
  96. Bit rate mode                            : Variable
  97. Bit rate                                 : 87 b/s
  98. Frame rate                               : 0.412 FPS
  99. Stream size                              : 55.3 KiB (0%)
  100. Title                                    : Arabic
  101. Language                                 : Arabic
  102. Forced                                   : No
  103. Encoded date                             : UTC 2023-01-01 14:15:14
  104. Tagged date                              : UTC 2023-01-01 14:15:17
  105. Text #5
  106. ID                                       : 7
  107. Format                                   : Timed Text
  108. Codec ID                                 : tx3g
  109. Duration                                 : 1 h 26 min
  110. Bit rate mode                            : Variable
  111. Bit rate                                 : 59 b/s
  112. Frame rate                               : 0.405 FPS
  113. Stream size                              : 37.2 KiB (0%)
  114. Title                                    : Chinese-Simplified
  115. Language                                 : Chinese (Simplied)
  116. Forced                                   : No
  117. Encoded date                             : UTC 2023-01-01 14:15:14
  118. Tagged date                              : UTC 2023-01-01 14:15:17
  119. Text #6
  120. ID                                       : 8
  121. Format                                   : Timed Text
  122. Codec ID                                 : tx3g
  123. Duration                                 : 1 h 26 min
  124. Bit rate mode                            : Variable
  125. Bit rate                                 : 56 b/s
  126. Frame rate                               : 0.420 FPS
  127. Stream size                              : 35.5 KiB (0%)
  128. Title                                    : Chinese-Traditional
  129. Language                                 : Chinese (Traditional)
  130. Forced                                   : No
  131. Encoded date                             : UTC 2023-01-01 14:15:14
  132. Tagged date                              : UTC 2023-01-01 14:15:17
  133. Text #7
  134. ID                                       : 9
  135. Format                                   : Timed Text
  136. Codec ID                                 : tx3g
  137. Duration                                 : 1 h 26 min
  138. Bit rate mode                            : Variable
  139. Bit rate                                 : 53 b/s
  140. Frame rate                               : 0.373 FPS
  141. Stream size                              : 33.5 KiB (0%)
  142. Title                                    : Croatian
  143. Language                                 : Croatian
  144. Forced                                   : No
  145. Encoded date                             : UTC 2023-01-01 14:15:14
  146. Tagged date                              : UTC 2023-01-01 14:15:17
  147. Text #8
  148. ID                                       : 10
  149. Format                                   : Timed Text
  150. Codec ID                                 : tx3g
  151. Duration                                 : 1 h 26 min
  152. Bit rate mode                            : Variable
  153. Bit rate                                 : 54 b/s
  154. Frame rate                               : 0.390 FPS
  155. Stream size                              : 34.5 KiB (0%)
  156. Title                                    : Czech
  157. Language                                 : Czech
  158. Forced                                   : No
  159. Encoded date                             : UTC 2023-01-01 14:15:14
  160. Tagged date                              : UTC 2023-01-01 14:15:17
  161. Text #9
  162. ID                                       : 11
  163. Format                                   : Timed Text
  164. Codec ID                                 : tx3g
  165. Duration                                 : 1 h 26 min
  166. Bit rate mode                            : Variable
  167. Bit rate                                 : 53 b/s
  168. Frame rate                               : 0.360 FPS
  169. Stream size                              : 33.4 KiB (0%)
  170. Title                                    : Danish
  171. Language                                 : Danish
  172. Forced                                   : No
  173. Encoded date                             : UTC 2023-01-01 14:15:15
  174. Tagged date                              : UTC 2023-01-01 14:15:17
  175. Text #10
  176. ID                                       : 12
  177. Format                                   : Timed Text
  178. Codec ID                                 : tx3g
  179. Duration                                 : 1 h 24 min
  180. Bit rate mode                            : Variable
  181. Bit rate                                 : 12 b/s
  182. Frame rate                               : 0.070 FPS
  183. Stream size                              : 7.47 KiB (0%)
  184. Title                                    : Dutch
  185. Language                                 : Dutch
  186. Forced                                   : No
  187. Encoded date                             : UTC 2023-01-01 14:15:15
  188. Tagged date                              : UTC 2023-01-01 14:15:17
  189. Text #11
  190. ID                                       : 13
  191. Format                                   : Timed Text
  192. Codec ID                                 : tx3g
  193. Duration                                 : 1 h 23 min
  194. Bit rate mode                            : Variable
  195. Bit rate                                 : 56 b/s
  196. Frame rate                               : 0.351 FPS
  197. Stream size                              : 34.6 KiB (0%)
  198. Title                                    : Dutch
  199. Language                                 : Dutch
  200. Forced                                   : No
  201. Encoded date                             : UTC 2023-01-01 14:15:15
  202. Tagged date                              : UTC 2023-01-01 14:15:17
  203. Text #12
  204. ID                                       : 14
  205. Format                                   : Timed Text
  206. Codec ID                                 : tx3g
  207. Duration                                 : 1 h 24 min
  208. Bit rate mode                            : Variable
  209. Bit rate                                 : 68 b/s
  210. Frame rate                               : 0.449 FPS
  211. Stream size                              : 41.9 KiB (0%)
  212. Title                                    : Dutch
  213. Language                                 : Dutch
  214. Forced                                   : No
  215. Encoded date                             : UTC 2023-01-01 14:15:15
  216. Tagged date                              : UTC 2023-01-01 14:15:17
  217. Text #13
  218. ID                                       : 15
  219. Format                                   : Timed Text
  220. Codec ID                                 : tx3g
  221. Duration                                 : 1 h 23 min
  222. Bit rate mode                            : Variable
  223. Bit rate                                 : 59 b/s
  224. Frame rate                               : 0.392 FPS
  225. Stream size                              : 36.0 KiB (0%)
  226. Title                                    : Filipino
  227. Language                                 : fil
  228. Forced                                   : No
  229. Encoded date                             : UTC 2023-01-01 14:15:15
  230. Tagged date                              : UTC 2023-01-01 14:15:17
  231. Text #14
  232. ID                                       : 16
  233. Format                                   : Timed Text
  234. Codec ID                                 : tx3g
  235. Duration                                 : 1 h 26 min
  236. Bit rate mode                            : Variable
  237. Bit rate                                 : 56 b/s
  238. Frame rate                               : 0.303 FPS
  239. Stream size                              : 35.5 KiB (0%)
  240. Title                                    : Finnish
  241. Language                                 : Finnish
  242. Forced                                   : No
  243. Encoded date                             : UTC 2023-01-01 14:15:15
  244. Tagged date                              : UTC 2023-01-01 14:15:17
  245. Text #15
  246. ID                                       : 17
  247. Format                                   : Timed Text
  248. Codec ID                                 : tx3g
  249. Duration                                 : 1 h 26 min
  250. Bit rate mode                            : Variable
  251. Bit rate                                 : 53 b/s
  252. Frame rate                               : 0.385 FPS
  253. Stream size                              : 33.9 KiB (0%)
  254. Title                                    : French
  255. Language                                 : French
  256. Forced                                   : No
  257. Encoded date                             : UTC 2023-01-01 14:15:15
  258. Tagged date                              : UTC 2023-01-01 14:15:17
  259. Text #16
  260. ID                                       : 18
  261. Format                                   : Timed Text
  262. Codec ID                                 : tx3g
  263. Duration                                 : 1 h 26 min
  264. Bit rate mode                            : Variable
  265. Bit rate                                 : 54 b/s
  266. Frame rate                               : 0.379 FPS
  267. Stream size                              : 34.3 KiB (0%)
  268. Title                                    : German
  269. Language                                 : German
  270. Forced                                   : No
  271. Encoded date                             : UTC 2023-01-01 14:15:15
  272. Tagged date                              : UTC 2023-01-01 14:15:17
  273. Text #17
  274. ID                                       : 19
  275. Format                                   : Timed Text
  276. Codec ID                                 : tx3g
  277. Duration                                 : 1 h 26 min
  278. Bit rate mode                            : Variable
  279. Bit rate                                 : 85 b/s
  280. Frame rate                               : 0.390 FPS
  281. Stream size                              : 54.1 KiB (0%)
  282. Title                                    : Greek
  283. Language                                 : Greek
  284. Forced                                   : No
  285. Encoded date                             : UTC 2023-01-01 14:15:15
  286. Tagged date                              : UTC 2023-01-01 14:15:17
  287. Text #18
  288. ID                                       : 20
  289. Format                                   : Timed Text
  290. Codec ID                                 : tx3g
  291. Duration                                 : 1 h 26 min
  292. Bit rate mode                            : Variable
  293. Bit rate                                 : 82 b/s
  294. Frame rate                               : 0.399 FPS
  295. Stream size                              : 52.1 KiB (0%)
  296. Title                                    : Hebrew
  297. Language                                 : Hebrew
  298. Forced                                   : No
  299. Encoded date                             : UTC 2023-01-01 14:15:15
  300. Tagged date                              : UTC 2023-01-01 14:15:17
  301. Text #19
  302. ID                                       : 21
  303. Format                                   : Timed Text
  304. Codec ID                                 : tx3g
  305. Duration                                 : 1 h 26 min
  306. Bit rate mode                            : Variable
  307. Bit rate                                 : 56 b/s
  308. Frame rate                               : 0.370 FPS
  309. Stream size                              : 35.8 KiB (0%)
  310. Title                                    : Hungarian
  311. Language                                 : Hungarian
  312. Forced                                   : No
  313. Encoded date                             : UTC 2023-01-01 14:15:15
  314. Tagged date                              : UTC 2023-01-01 14:15:17
  315. Text #20
  316. ID                                       : 22
  317. Format                                   : Timed Text
  318. Codec ID                                 : tx3g
  319. Duration                                 : 1 h 26 min
  320. Bit rate mode                            : Variable
  321. Bit rate                                 : 57 b/s
  322. Frame rate                               : 0.396 FPS
  323. Stream size                              : 36.2 KiB (0%)
  324. Title                                    : Indonesian
  325. Language                                 : Indonesian
  326. Forced                                   : No
  327. Encoded date                             : UTC 2023-01-01 14:15:15
  328. Tagged date                              : UTC 2023-01-01 14:15:17
  329. Text #21
  330. ID                                       : 23
  331. Format                                   : Timed Text
  332. Codec ID                                 : tx3g
  333. Duration                                 : 1 h 26 min
  334. Bit rate mode                            : Variable
  335. Bit rate                                 : 54 b/s
  336. Frame rate                               : 0.388 FPS
  337. Stream size                              : 34.5 KiB (0%)
  338. Title                                    : Italian
  339. Language                                 : Italian
  340. Forced                                   : No
  341. Encoded date                             : UTC 2023-01-01 14:15:15
  342. Tagged date                              : UTC 2023-01-01 14:15:17
  343. Text #22
  344. ID                                       : 24
  345. Format                                   : Timed Text
  346. Codec ID                                 : tx3g
  347. Duration                                 : 1 h 26 min
  348. Bit rate mode                            : Variable
  349. Bit rate                                 : 52 b/s
  350. Frame rate                               : 0.403 FPS
  351. Stream size                              : 33.3 KiB (0%)
  352. Title                                    : Japanese
  353. Language                                 : Japanese
  354. Forced                                   : No
  355. Encoded date                             : UTC 2023-01-01 14:15:16
  356. Tagged date                              : UTC 2023-01-01 14:15:17
  357. Text #23
  358. ID                                       : 25
  359. Format                                   : Timed Text
  360. Codec ID                                 : tx3g
  361. Duration                                 : 1 h 26 min
  362. Bit rate mode                            : Variable
  363. Bit rate                                 : 61 b/s
  364. Frame rate                               : 0.395 FPS
  365. Stream size                              : 38.8 KiB (0%)
  366. Title                                    : Korean
  367. Language                                 : Korean
  368. Forced                                   : No
  369. Encoded date                             : UTC 2023-01-01 14:15:16
  370. Tagged date                              : UTC 2023-01-01 14:15:17
  371. Text #24
  372. ID                                       : 26
  373. Format                                   : Timed Text
  374. Codec ID                                 : tx3g
  375. Duration                                 : 1 h 26 min
  376. Bit rate mode                            : Variable
  377. Bit rate                                 : 55 b/s
  378. Frame rate                               : 0.393 FPS
  379. Stream size                              : 35.0 KiB (0%)
  380. Title                                    : Malay
  381. Language                                 : Malay
  382. Forced                                   : No
  383. Encoded date                             : UTC 2023-01-01 14:15:16
  384. Tagged date                              : UTC 2023-01-01 14:15:17
  385. Text #25
  386. ID                                       : 27
  387. Format                                   : Timed Text
  388. Codec ID                                 : tx3g
  389. Duration                                 : 1 h 26 min
  390. Bit rate mode                            : Variable
  391. Bit rate                                 : 51 b/s
  392. Frame rate                               : 0.343 FPS
  393. Stream size                              : 32.6 KiB (0%)
  394. Title                                    : Norwegian
  395. Language                                 : Norwegian Bokmal
  396. Forced                                   : No
  397. Encoded date                             : UTC 2023-01-01 14:15:16
  398. Tagged date                              : UTC 2023-01-01 14:15:17
  399. Text #26
  400. ID                                       : 28
  401. Format                                   : Timed Text
  402. Codec ID                                 : tx3g
  403. Duration                                 : 1 h 26 min
  404. Bit rate mode                            : Variable
  405. Bit rate                                 : 54 b/s
  406. Frame rate                               : 0.392 FPS
  407. Stream size                              : 34.4 KiB (0%)
  408. Title                                    : Polish
  409. Language                                 : Polish
  410. Forced                                   : No
  411. Encoded date                             : UTC 2023-01-01 14:15:16
  412. Tagged date                              : UTC 2023-01-01 14:15:17
  413. Text #27
  414. ID                                       : 29
  415. Format                                   : Timed Text
  416. Codec ID                                 : tx3g
  417. Duration                                 : 1 h 26 min
  418. Bit rate mode                            : Variable
  419. Bit rate                                 : 58 b/s
  420. Frame rate                               : 0.395 FPS
  421. Stream size                              : 37.2 KiB (0%)
  422. Title                                    : Portuguese
  423. Language                                 : Portuguese
  424. Forced                                   : No
  425. Encoded date                             : UTC 2023-01-01 14:15:16
  426. Tagged date                              : UTC 2023-01-01 14:15:17
  427. Text #28
  428. ID                                       : 30
  429. Format                                   : Timed Text
  430. Codec ID                                 : tx3g
  431. Duration                                 : 1 h 23 min
  432. Bit rate mode                            : Variable
  433. Bit rate                                 : 68 b/s
  434. Frame rate                               : 0.443 FPS
  435. Stream size                              : 41.6 KiB (0%)
  436. Title                                    : Portuguese-BR
  437. Language                                 : Portuguese (BR)
  438. Forced                                   : No
  439. Encoded date                             : UTC 2023-01-01 14:15:16
  440. Tagged date                              : UTC 2023-01-01 14:15:17
  441. Text #29
  442. ID                                       : 31
  443. Format                                   : Timed Text
  444. Codec ID                                 : tx3g
  445. Duration                                 : 1 h 25 min
  446. Bit rate mode                            : Variable
  447. Bit rate                                 : 81 b/s
  448. Frame rate                               : 0.548 FPS
  449. Stream size                              : 51.0 KiB (0%)
  450. Title                                    : Portuguese-BR
  451. Language                                 : Portuguese (BR)
  452. Forced                                   : No
  453. Encoded date                             : UTC 2023-01-01 14:15:16
  454. Tagged date                              : UTC 2023-01-01 14:15:17
  455. Text #30
  456. ID                                       : 32
  457. Format                                   : Timed Text
  458. Codec ID                                 : tx3g
  459. Duration                                 : 1 h 26 min
  460. Bit rate mode                            : Variable
  461. Bit rate                                 : 59 b/s
  462. Frame rate                               : 0.379 FPS
  463. Stream size                              : 37.7 KiB (0%)
  464. Title                                    : Portuguese-BR
  465. Language                                 : Portuguese (BR)
  466. Forced                                   : No
  467. Encoded date                             : UTC 2023-01-01 14:15:16
  468. Tagged date                              : UTC 2023-01-01 14:15:17
  469. Text #31
  470. ID                                       : 33
  471. Format                                   : Timed Text
  472. Codec ID                                 : tx3g
  473. Duration                                 : 1 h 26 min
  474. Bit rate mode                            : Variable
  475. Bit rate                                 : 60 b/s
  476. Frame rate                               : 0.356 FPS
  477. Stream size                              : 38.1 KiB (0%)
  478. Title                                    : Romanian
  479. Language                                 : Romanian
  480. Forced                                   : No
  481. Encoded date                             : UTC 2023-01-01 14:15:16
  482. Tagged date                              : UTC 2023-01-01 14:15:17
  483. Text #32
  484. ID                                       : 34
  485. Format                                   : Timed Text
  486. Codec ID                                 : tx3g
  487. Duration                                 : 1 h 26 min
  488. Bit rate mode                            : Variable
  489. Bit rate                                 : 86 b/s
  490. Frame rate                               : 0.388 FPS
  491. Stream size                              : 54.8 KiB (0%)
  492. Title                                    : Russian
  493. Language                                 : Russian
  494. Forced                                   : No
  495. Encoded date                             : UTC 2023-01-01 14:15:16
  496. Tagged date                              : UTC 2023-01-01 14:15:17
  497. Text #33
  498. ID                                       : 35
  499. Format                                   : Timed Text
  500. Codec ID                                 : tx3g
  501. Duration                                 : 1 h 24 min
  502. Bit rate mode                            : Variable
  503. Bit rate                                 : 57 b/s
  504. Frame rate                               : 0.388 FPS
  505. Stream size                              : 35.2 KiB (0%)
  506. Title                                    : Spanish
  507. Language                                 : Spanish (150)
  508. Forced                                   : No
  509. Encoded date                             : UTC 2023-01-01 14:15:16
  510. Tagged date                              : UTC 2023-01-01 14:15:17
  511. Text #34
  512. ID                                       : 36
  513. Format                                   : Timed Text
  514. Codec ID                                 : tx3g
  515. Duration                                 : 1 h 26 min
  516. Bit rate mode                            : Variable
  517. Bit rate                                 : 55 b/s
  518. Frame rate                               : 0.379 FPS
  519. Stream size                              : 35.0 KiB (0%)
  520. Title                                    : Spanish-EU
  521. Language                                 : Spanish
  522. Forced                                   : No
  523. Encoded date                             : UTC 2023-01-01 14:15:17
  524. Tagged date                              : UTC 2023-01-01 14:15:17
  525. Text #35
  526. ID                                       : 37
  527. Format                                   : Timed Text
  528. Codec ID                                 : tx3g
  529. Duration                                 : 1 h 26 min
  530. Bit rate mode                            : Variable
  531. Bit rate                                 : 53 b/s
  532. Frame rate                               : 0.370 FPS
  533. Stream size                              : 33.9 KiB (0%)
  534. Title                                    : Swedish
  535. Language                                 : Swedish
  536. Forced                                   : No
  537. Encoded date                             : UTC 2023-01-01 14:15:17
  538. Tagged date                              : UTC 2023-01-01 14:15:17
  539. Text #36
  540. ID                                       : 38
  541. Format                                   : Timed Text
  542. Codec ID                                 : tx3g
  543. Duration                                 : 1 h 26 min
  544. Bit rate mode                            : Variable
  545. Bit rate                                 : 125 b/s
  546. Frame rate                               : 0.455 FPS
  547. Stream size                              : 79.4 KiB (0%)
  548. Title                                    : Thai
  549. Language                                 : Thai
  550. Forced                                   : No
  551. Encoded date                             : UTC 2023-01-01 14:15:17
  552. Tagged date                              : UTC 2023-01-01 14:15:17
  553. Text #37
  554. ID                                       : 39
  555. Format                                   : Timed Text
  556. Codec ID                                 : tx3g
  557. Duration                                 : 1 h 26 min
  558. Bit rate mode                            : Variable
  559. Bit rate                                 : 56 b/s
  560. Frame rate                               : 0.393 FPS
  561. Stream size                              : 35.6 KiB (0%)
  562. Title                                    : Turkish
  563. Language                                 : Turkish
  564. Forced                                   : No
  565. Encoded date                             : UTC 2023-01-01 14:15:17
  566. Tagged date                              : UTC 2023-01-01 14:15:17
  567. Text #38
  568. ID                                       : 40
  569. Format                                   : Timed Text
  570. Codec ID                                 : tx3g
  571. Duration                                 : 1 h 26 min
  572. Bit rate mode                            : Variable
  573. Bit rate                                 : 84 b/s
  574. Frame rate                               : 0.393 FPS
  575. Stream size                              : 53.1 KiB (0%)
  576. Title                                    : Ukrainian
  577. Language                                 : Ukrainian
  578. Forced                                   : No
  579. Encoded date                             : UTC 2023-01-01 14:15:17
  580. Tagged date                              : UTC 2023-01-01 14:15:17
  581. Text #39
  582. ID                                       : 41
  583. Format                                   : Timed Text
  584. Codec ID                                 : tx3g
  585. Duration                                 : 1 h 26 min
  586. Bit rate mode                            : Variable
  587. Bit rate                                 : 73 b/s
  588. Frame rate                               : 0.397 FPS
  589. Stream size                              : 46.5 KiB (0%)
  590. Title                                    : Vietnamese
  591. Language                                 : Vietnamese
  592. Forced                                   : No
  593. Encoded date                             : UTC 2023-01-01 14:15:17
  594. Tagged date                              : UTC 2023-01-01 14:15:17
复制代码











回复

使用道具 举报

懒得打字嘛,点击右侧快捷回复 【右侧内容,后台自定义】
您需要登录后才可以回帖 登录 | 立即加入

本版积分规则

Copyright © 2024 Comsenz Inc. Powered by 蓝光电影网

本站内容由用户自主分享和转载自互联网,转载目的在于传递更多信息,并不代表本网赞同其观点和对其真实性负责。

如有侵权、违反国家法律政策行为,请联系我们,我们会第一时间及时清除和处理!

举报反馈邮箱:4k1080.com@gmail.com

快速回复 返回顶部 返回列表