找回密码

蓝光电影网

查看: 56|回复: 0

[2160p] 死亡占卜.Ouija.2014.2160p.BluRay.x265.10bit.SDR.DTS-HD.MA.5.1-SWTYBLZ 24.77GB

[复制链接]
蓝光币
1084
发表于 2023-1-14 14:02:55 | 显示全部楼层 |阅读模式


◎标  题 灭亡占卜
◎译  名 灭亡占卜(港) / 美版通灵 / 通灵
◎片  名 Ouija
◎年  代 2014
◎产  地 美国
◎类  别 行动 / 惊悚 / 可骇 / 冒险
◎语  言 英语
◎上映日期 2014-10-24(美国)
◎IMDb评分 4.5/10 (51127人评价)
◎IMDb链接 https://www.imdb.com/title/tt1204977/
◎豆瓣评分 5.5/10 (5016人评价)
◎豆瓣链接 https://movie.douban.com/subject/3014399/
◎片  长 89分钟
◎导  演 斯蒂尔斯·怀特 Stiles White
◎编  剧 亚当·霍罗威茨 Adam Horowitz
       爱德华·基齐斯 Edward Kitsis
◎演  员 奥利维亚·库克 Olivia Cooke
       安娜·科托 Ana Coto
       达伦·卡加索夫 Daren Kagasoff
       比安卡·A·桑托斯 Bianca A. Santos
       道格拉斯·史姑娘 Douglas Smith
       雪莱·亨尼格 Shelley Hennig
       桑尼·梅·艾利森 Sunny May Allison
       林·沙烨 Lin Shaye
       克劳迪娅·卡茨 Claudia Katz
       罗宾·莱弗里 Robyn Lively
       马修·塞特尔 Matthew Settle
       维维斯·科隆贝蒂 Vivis Colombetti
       丹尼斯·奎德 Dennis Quaid
       克劳迪娅·卡茨 Claudia Katz
       Alex Williams Alex Williams
       塞拉·希乌尔曼 Sierra Heuermann
       海伦·亨特 Helen Hunt
◎标  签 可骇 / 美国 / 惊悚 / 灵异 / 悬疑 / 笔仙 / 青春 / 可骇电影
◎简  介
    莱妮(奥利维亚·库克 Olivia Cooke 饰)和黛比(雪莱·亨尼格 Shelley Hennig 饰)是一对从小玩到大的好朋友,谁知在某个毫无征象的夜晚,黛比忽然上吊自杀,这起变故给了莱妮极为沉痛的冲击。她决然不相信好友会挑选如此残暴的方式分开,在多方调盘询问无果后,莱妮召集了妹妹萨拉(安娜·科托 Ana Coto 饰)以及伊莎贝尔(比安卡·A·桑托斯 Bianca A. Santos 饰)、特里弗(达伦·卡加索夫 Daren Kagasoff 饰)、皮特(道格拉斯·史姑娘 Douglas Smith 饰)等好友,用她和黛比小时辰最常玩的通灵板,试图呼唤黛比问清死因。                                                                      阴晦的房间里,他们的询问获得回应,而可骇的噩梦似乎就此起头……
  1. Video
  2. ID                                       : 1
  3. Format                                   : HEVC
  4. Format/Info                              : High Efficiency Video Coding
  5. Format profile                           : Main [email protected]@High
  6. Codec ID                                 : V_MPEGH/ISO/HEVC
  7. Duration                                 : 1 h 29 min
  8. Bit rate                                 : 35.2 Mb/s
  9. Width                                    : 3 840 pixels
  10. Height                                   : 1 600 pixels
  11. Display aspect ratio                     : 2.40:1
  12. Frame rate mode                          : Constant
  13. Frame rate                               : 23.976 (24000/1001) FPS
  14. Color space                              : YUV
  15. Chroma subsampling                       : 4:2:0
  16. Bit depth                                : 10 bits
  17. Bits/(Pixel*Frame)                       : 0.239
  18. Stream size                              : 22.0 GiB (89%)
  19. Writing library                          : x265 3.0+1-ed72af837053:[Windows][GCC 8.2.0][64 bit] 10bit
  20. Encoding settings                        : cpuid=1111039 / frame-threads=6 / numa-pools=40 / wpp / no-pmode / no-pme / no-psnr / no-ssim / log-level=2 / input-csp=1 / input-res=3840x1600 / interlace=0 / total-frames=128616 / level-idc=51 / high-tier=1 / uhd-bd=0 / ref=3 / no-allow-non-conformance / repeat-headers / annexb / aud / hrd / info / hash=0 / no-temporal-layers / no-open-gop / min-keyint=1 / keyint=24 / gop-lookahead=0 / bframes=4 / b-adapt=2 / b-pyramid / bframe-bias=0 / rc-lookahead=25 / lookahead-slices=4 / scenecut=40 / radl=0 / no-splice / no-intra-refresh / ctu=64 / min-cu-size=8 / no-rect / no-amp / max-tu-size=32 / tu-inter-depth=1 / tu-intra-depth=1 / limit-tu=0 / rdoq-level=0 / dynamic-rd=0.00 / no-ssim-rd / signhide / no-tskip / nr-intra=0 / nr-inter=0 / no-constrained-intra / strong-intra-smoothing / max-merge=2 / limit-refs=3 / no-limit-modes / me=1 / subme=2 / merange=57 / temporal-mvp / weightp / no-weightb / no-analyze-src-pics / deblock=0:0 / no-sao / no-sao-non-deblock / rd=3 / no-early-skip / rskip / no-fast-intra / no-tskip-fast / no-cu-lossless / no-b-intra / no-splitrd-skip / rdpenalty=0 / psy-rd=2.00 / psy-rdoq=0.00 / no-rd-refine / no-lossless / cbqpoffs=0 / crqpoffs=0 / rc=crf / crf=16.0 / qcomp=0.60 / qpstep=4 / stats-write=0 / stats-read=0 / vbv-maxrate=160000 / vbv-bufsize=160000 / vbv-init=0.9 / crf-max=0.0 / crf-min=0.0 / ipratio=1.40 / pbratio=1.30 / aq-mode=1 / aq-strength=1.00 / cutree / zone-count=0 / no-strict-cbr / qg-size=32 / no-rc-grain / qpmax=69 / qpmin=0 / no-const-vbv / sar=1 / overscan=0 / videoformat=5 / range=0 / colorprim=2 / transfer=2 / colormatrix=2 / chromaloc=0 / display-window=0 / max-cll=0,0 / min-luma=0 / max-luma=1023 / log2-max-poc-lsb=8 / vui-timing-info / vui-hrd-info / slices=1 / opt-qp-pps / opt-ref-list-length-pps / no-multi-pass-opt-rps / scenecut-bias=0.05 / no-opt-cu-delta-qp / no-aq-motion / no-hdr / no-hdr-opt / no-dhdr10-opt / no-idr-recovery-sei / analysis-reuse-level=5 / scale-factor=0 / refine-intra=0 / refine-inter=0 / refine-mv=0 / refine-ctu-distortion=0 / no-limit-sao / ctu-info=0 / no-lowpass-dct / refine-analysis-type=0 / copy-pic=1 / max-ausize-factor=1.0 / no-dynamic-refine / no-single-sei / no-hevc-aq / qp-adaptation-range=1.00
  21. Default                                  : Yes
  22. Forced                                   : No
  23. Audio #1
  24. ID                                       : 2
  25. ID in the original source medium         : 4352 (0x1100)
  26. Format                                   : DTS XLL
  27. Format/Info                              : Digital Theater Systems
  28. Commercial name                          : DTS-HD Master Audio
  29. Codec ID                                 : A_DTS
  30. Duration                                 : 1 h 29 min
  31. Bit rate mode                            : Variable
  32. Bit rate                                 : 3 586 kb/s
  33. Channel(s)                               : 6 channels
  34. Channel layout                           : C L R Ls Rs LFE
  35. Sampling rate                            : 48.0 kHz
  36. Frame rate                               : 93.750 FPS (512 SPF)
  37. Bit depth                                : 24 bits
  38. Compression mode                         : Lossless
  39. Stream size                              : 2.24 GiB (9%)
  40. Title                                    : DTS-HD MA 5.1
  41. Language                                 : English
  42. Default                                  : Yes
  43. Forced                                   : No
  44. Original source medium                   : Blu-ray
  45. Audio #2
  46. ID                                       : 3
  47. Format                                   : AC-3
  48. Format/Info                              : Audio Coding 3
  49. Commercial name                          : Dolby Digital
  50. Codec ID                                 : A_AC3
  51. Duration                                 : 1 h 29 min
  52. Bit rate mode                            : Constant
  53. Bit rate                                 : 640 kb/s
  54. Channel(s)                               : 6 channels
  55. Channel layout                           : L R C LFE Ls Rs
  56. Sampling rate                            : 48.0 kHz
  57. Frame rate                               : 31.250 FPS (1536 SPF)
  58. Compression mode                         : Lossy
  59. Stream size                              : 409 MiB (2%)
  60. Title                                    : DD 5.1
  61. Language                                 : English
  62. Service kind                             : Complete Main
  63. Default                                  : No
  64. Forced                                   : No
  65. Text #1
  66. ID                                       : 4
  67. Format                                   : UTF-8
  68. Codec ID                                 : S_TEXT/UTF8
  69. Codec ID/Info                            : UTF-8 Plain Text
  70. Duration                                 : 1 h 20 min
  71. Bit rate                                 : 38 b/s
  72. Frame rate                               : 0.152 FPS
  73. Count of elements                        : 739
  74. Stream size                              : 22.7 KiB (0%)
  75. Language                                 : English
  76. Default                                  : Yes
  77. Forced                                   : No
  78. Text #2
  79. ID                                       : 5
  80. Format                                   : UTF-8
  81. Codec ID                                 : S_TEXT/UTF8
  82. Codec ID/Info                            : UTF-8 Plain Text
  83. Duration                                 : 1 h 28 min
  84. Bit rate                                 : 47 b/s
  85. Frame rate                               : 0.205 FPS
  86. Count of elements                        : 1095
  87. Stream size                              : 30.7 KiB (0%)
  88. Title                                    : SDH
  89. Language                                 : English
  90. Default                                  : No
  91. Forced                                   : No
  92. Text #3
  93. ID                                       : 6
  94. ID in the original source medium         : 4768 (0x12A0)
  95. Format                                   : PGS
  96. Muxing mode                              : zlib
  97. Codec ID                                 : S_HDMV/PGS
  98. Codec ID/Info                            : Picture based subtitle format used on BDs/HD-DVDs
  99. Duration                                 : 1 h 28 min
  100. Bit rate                                 : 29.6 kb/s
  101. Frame rate                               : 0.413 FPS
  102. Count of elements                        : 2204
  103. Stream size                              : 18.8 MiB (0%)
  104. Language                                 : English
  105. Default                                  : No
  106. Forced                                   : No
  107. Original source medium                   : Blu-ray
  108. Menu
  109. 00:00:00.000                             : en:Chapter 01
  110. 00:09:31.821                             : en:Chapter 02
  111. 00:16:28.028                             : en:Chapter 03
  112. 00:24:14.786                             : en:Chapter 04
  113. 00:32:12.055                             : en:Chapter 05
  114. 00:40:04.944                             : en:Chapter 06
  115. 00:49:29.591                             : en:Chapter 07
  116. 00:55:53.767                             : en:Chapter 08
  117. 01:02:25.450                             : en:Chapter 09
  118. 01:10:03.782                             : en:Chapter 10
  119. 01:15:25.270                             : en:Chapter 11
  120. 01:22:05.837                             : en:Chapter 12
  121. 01:29:23.316                             : en:Chapter 13
复制代码















回复

使用道具 举报

懒得打字嘛,点击右侧快捷回复 【右侧内容,后台自定义】
您需要登录后才可以回帖 登录 | 立即加入

本版积分规则

Archiver|小黑屋| 蓝光电影网 |网站地图

Copyright © 2021 Comsenz Inc. Powered by 蓝光电影网

蓝光电影网

本站内容由用户自主分享和转载自互联网,转载目的在于传递更多信息,并不代表本网赞同其观点和对其真实性负责。

如有侵权、违反国家法律政策行为,请联系我们,我们会第一时间及时清除和处理!

举报反馈邮箱:[email protected]

快速回复 返回顶部 返回列表