找回密码

查看: 1911|回复: 0

[剧情] 等待.The.Wait.2021.FINNISH.1080p.HMAX.WEBRip.DD5.1.x264-playWEB 5.58GB

[复制链接]
蓝光币
2027
发表于 2023-4-16 12:07:13 | 显示全部楼层 |阅读模式


◎译  名 期待 / The Wait
◎片  名 Odotus
◎年  代 2021
◎产  地 芬兰
◎类  别 剧情 / 恋爱
◎语  言 芬兰语
◎上映日期 2021-11-26(塔林黑夜电影节) / 2022-04-01(芬兰)
◎IMDb评星  ★★★★★✦☆☆☆☆
◎IMDb评分  5.6/10 from 364 users
◎IMDb链接  https://www.imdb.com/title/tt12453124/
◎豆瓣评星 ★★★☆☆
◎豆瓣评分 6.2/10 from 122 users
◎豆瓣链接 https://movie.douban.com/subject/35213116/
◎片  长 100分钟
◎导  演 阿库·卢希米斯 / Aku Louhimies
◎演  员 因卡·卡伦 / Inka Kallén
      安德烈·阿伦 / Andrei Alen
      阿库·哈里米 / Aku Hirviniemi
      埃诺·海斯卡宁 / Eino Heiskanen
◎编  剧 朱哈尼·阿霍 / Juhani Aho
      因卡·卡伦 / Inka Kallén
      阿库·卢希米斯 / Aku Louhimies
◎简  介 
  本片灵感源于芬兰作家朱哈尼·阿霍的小说《牧师的妻子》,报告了一个发生在现今社会的故事。时至本日,女性仍需扪心自问:能否敢对自己完全老实?在一段严重刺激的三角恋中,女主被性感动指导着去束缚真相。
  1. Video
  2. ID : 1
  3. Format : AVC
  4. Format/Info : Advanced Video Codec
  5. Format profile : High@L4
  6. Format settings : CABAC / 4 Ref Frames
  7. Format settings, CABAC : Yes
  8. Format settings, Reference frames : 4 frames
  9. Codec ID : V_MPEG4/ISO/AVC
  10. Duration : 1 h 32 min
  11. Bit rate mode : Variable
  12. Bit rate : 8 250 kb/s
  13. Maximum bit rate : 12.4 Mb/s
  14. Width : 1 920 pixels
  15. Height : 1 080 pixels
  16. Display aspect ratio : 16:9
  17. Frame rate mode : Constant
  18. Frame rate : 25.000 FPS
  19. Color space : YUV
  20. Chroma subsampling : 4:2:0
  21. Bit depth : 8 bits
  22. Scan type : Progressive
  23. Bits/(Pixel*Frame) : 0.159
  24. Stream size : 5.33 GiB (96%)
  25. Writing library : x264 core 157 r2965 861cec4
  26. Encoding settings : cabac=1 / ref=4 / deblock=1:0:0 / analyse=0x3:0x113 / me=hex / subme=7 / psy=1 / psy_rd=1.00:0.00 / mixed_ref=1 / me_range=16 / chroma_me=1 / trellis=1 / 8x8dct=1 / cqm=0 / deadzone=21,11 / fast_pskip=1 / chroma_qp_offset=-2 / threads=34 / lookahead_threads=5 / sliced_threads=0 / nr=0 / decimate=1 / interlaced=0 / bluray_compat=0 / constrained_intra=0 / bframes=3 / b_pyramid=2 / b_adapt=1 / b_bias=0 / direct=1 / weightb=1 / open_gop=0 / weightp=2 / keyint=100 / keyint_min=100 / scenecut=40 / intra_refresh=0 / rc_lookahead=40 / rc=2pass / mbtree=1 / bitrate=8250 / ratetol=1.0 / qcomp=0.60 / qpmin=0 / qpmax=69 / qpstep=4 / cplxblur=20.0 / qblur=0.5 / vbv_maxrate=12375 / vbv_bufsize=6187 / nal_hrd=vbr / filler=0 / ip_ratio=1.40 / aq=1:1.00
  27. Default : Yes
  28. Forced : No
  29. Color range : Limited
  30. Color primaries : BT.709
  31. Transfer characteristics : BT.709
  32. Matrix coefficients : BT.709
  33. Audio
  34. ID : 2
  35. Format : AC-3
  36. Format/Info : Audio Coding 3
  37. Commercial name : Dolby Digital
  38. Codec ID : A_AC3
  39. Duration : 1 h 32 min
  40. Bit rate mode : Constant
  41. Bit rate : 384 kb/s
  42. Channel(s) : 6 channels
  43. Channel layout : L R C LFE Ls Rs
  44. Sampling rate : 48.0 kHz
  45. Frame rate : 31.250 FPS (1536 SPF)
  46. Compression mode : Lossy
  47. Stream size : 255 MiB (4%)
  48. Language : Finnish (FI)
  49. Service kind : Complete Main
  50. Default : Yes
  51. Forced : No
  52. Text #1
  53. ID : 3
  54. Format : UTF-8
  55. Codec ID : S_TEXT/UTF8
  56. Codec ID/Info : UTF-8 Plain Text
  57. Duration : 1 h 28 min
  58. Bit rate : 40 b/s
  59. Frame rate : 0.091 FPS
  60. Count of elements : 483
  61. Stream size : 26.3 KiB (0%)
  62. Language : Bulgarian (BG)
  63. Default : No
  64. Forced : No
  65. Text #2
  66. ID : 4
  67. Format : UTF-8
  68. Codec ID : S_TEXT/UTF8
  69. Codec ID/Info : UTF-8 Plain Text
  70. Duration : 1 h 28 min
  71. Bit rate : 27 b/s
  72. Frame rate : 0.100 FPS
  73. Count of elements : 528
  74. Stream size : 18.1 KiB (0%)
  75. Language : Czech (CZ)
  76. Default : No
  77. Forced : No
  78. Text #3
  79. ID : 5
  80. Format : UTF-8
  81. Codec ID : S_TEXT/UTF8
  82. Codec ID/Info : UTF-8 Plain Text
  83. Duration : 1 h 26 min
  84. Bit rate : 25 b/s
  85. Frame rate : 0.101 FPS
  86. Count of elements : 526
  87. Stream size : 16.1 KiB (0%)
  88. Language : English
  89. Default : No
  90. Forced : No
  91. Text #4
  92. ID : 6
  93. Format : UTF-8
  94. Codec ID : S_TEXT/UTF8
  95. Codec ID/Info : UTF-8 Plain Text
  96. Duration : 1 h 27 min
  97. Bit rate : 22 b/s
  98. Frame rate : 0.101 FPS
  99. Count of elements : 527
  100. Stream size : 14.1 KiB (0%)
  101. Language : Croatian (HR)
  102. Default : No
  103. Forced : No
  104. Text #5
  105. ID : 7
  106. Format : UTF-8
  107. Codec ID : S_TEXT/UTF8
  108. Codec ID/Info : UTF-8 Plain Text
  109. Duration : 1 h 30 min
  110. Bit rate : 25 b/s
  111. Frame rate : 0.099 FPS
  112. Count of elements : 538
  113. Stream size : 16.7 KiB (0%)
  114. Language : Hungarian (HU)
  115. Default : No
  116. Forced : No
  117. Text #6
  118. ID : 8
  119. Format : UTF-8
  120. Codec ID : S_TEXT/UTF8
  121. Codec ID/Info : UTF-8 Plain Text
  122. Duration : 1 h 27 min
  123. Bit rate : 40 b/s
  124. Frame rate : 0.101 FPS
  125. Count of elements : 527
  126. Stream size : 25.8 KiB (0%)
  127. Language : Macedonian (MK)
  128. Default : No
  129. Forced : No
  130. Text #7
  131. ID : 9
  132. Format : UTF-8
  133. Codec ID : S_TEXT/UTF8
  134. Codec ID/Info : UTF-8 Plain Text
  135. Duration : 1 h 28 min
  136. Bit rate : 23 b/s
  137. Frame rate : 0.105 FPS
  138. Count of elements : 557
  139. Stream size : 15.4 KiB (0%)
  140. Language : Polish (PL)
  141. Default : No
  142. Forced : No
  143. Text #8
  144. ID : 10
  145. Format : UTF-8
  146. Codec ID : S_TEXT/UTF8
  147. Codec ID/Info : UTF-8 Plain Text
  148. Duration : 1 h 26 min
  149. Bit rate : 27 b/s
  150. Frame rate : 0.101 FPS
  151. Count of elements : 526
  152. Stream size : 17.7 KiB (0%)
  153. Language : Romanian (RO)
  154. Default : No
  155. Forced : No
  156. Text #9
  157. ID : 11
  158. Format : UTF-8
  159. Codec ID : S_TEXT/UTF8
  160. Codec ID/Info : UTF-8 Plain Text
  161. Duration : 1 h 27 min
  162. Bit rate : 22 b/s
  163. Frame rate : 0.101 FPS
  164. Count of elements : 527
  165. Stream size : 14.2 KiB (0%)
  166. Language : Slovenian (SI)
  167. Default : No
  168. Forced : No
  169. Text #10
  170. ID : 12
  171. Format : UTF-8
  172. Codec ID : S_TEXT/UTF8
  173. Codec ID/Info : UTF-8 Plain Text
  174. Duration : 1 h 27 min
  175. Bit rate : 22 b/s
  176. Frame rate : 0.101 FPS
  177. Count of elements : 527
  178. Stream size : 14.1 KiB (0%)
  179. Language : Serbian-Latn-RS
  180. Default : No
  181. Forced : No
复制代码











回复

使用道具 举报

懒得打字嘛,点击右侧快捷回复 【右侧内容,后台自定义】
您需要登录后才可以回帖 登录 | 立即加入

本版积分规则

Archiver| |网站地图

Copyright © 2024 Comsenz Inc. Powered by 蓝光电影网

本站内容由用户自主分享和转载自互联网,转载目的在于传递更多信息,并不代表本网赞同其观点和对其真实性负责。

如有侵权、违反国家法律政策行为,请联系我们,我们会第一时间及时清除和处理!

举报反馈邮箱:4k1080.com@gmail.com

快速回复 返回顶部 返回列表