找回密码

蓝光电影网

查看: 286|回复: 0

[剧情] 静水城/斯蒂尔沃特 Stillwater.2021.1080p.BluRay.REMUX.AVC.DTS-HD.MA.5.1-FGT 34.12GB

[复制链接]
蓝光币
730
发表于 2021-10-27 10:52:24 | 显示全部楼层 |阅读模式


◎译  名 静水城/斯蒂尔沃特/止水/静水
◎片  名 Stillwater
◎年  代 2021
◎产  地 美国
◎类  别 剧情 / 惊悚 / 犯罪
◎语  言 英语
◎上映日期 2021-07-08(戛纳电影节) / 2021-07-30(美国)
◎豆瓣评分 7.1/10 from 8013 users
◎豆瓣链接 https://movie.douban.com/subject/34614665/
◎片  长 139分钟
◎导  演 汤姆·麦卡锡 Tom McCarthy
◎编  剧 汤姆·麦卡锡 Tom McCarthy / 马库斯·辛奇 Marcus Hinchey / 托马斯·彼得葛恩 Thomas Bidegain / 诺亚·德勃雷 Noé Debré
◎主  演 马特·达蒙 Matt Damon
       卡米尔·科坦 Camille Cottin
       阿比盖尔·布雷斯林 Abigail Breslin
       利鲁·肖沃 Lilou Siauvaud
       狄安娜·杜纳甘 Deanna Dunagan
       伊迪尔·阿祖格利 Idir Azougli
       安娜·勒尼 Anne Le Ny
       茂萨·马斯克里 Moussa Maaskri
       伊莎贝尔·塔纳克 Isabelle Tanakil
       奈德拉·阿亚迪 Naidra Ayadi
       吉尔伯特·特拉尼亚 Gilbert Traina
       威廉·纳迪兰 William Nadylam
       沙扎德·拉蒂夫 Shazad Latif
       米歇尔?邦波 Michel Bompoil
       莎拉·布鲁克斯 Sarah Brooks
       埃里克·斯达克 Eric Starkey
       罗伯特·皮特斯 Robert Peters
       Olivier Cruveiller Olivier Cruveiller
◎标  签 剧情 | 美国 | 犯罪 | 2021 | 悬疑 | 欧美 | 电影 | 惊悚
◎简  介


  影片围绕一个来自俄克拉荷马州的美国石油钻井平台钻工比尔(达蒙饰)展开。他不能不前往马赛,造访他久未碰面却锒铛入狱的女儿(布雷斯林饰),他的女儿坚称并没有犯下谋杀罪。面临说话的障碍、文化的差别,以及复杂的法令制度,比尔决意孤注一掷拯救他的女儿。而在这个进程中,他与一位当地的女性和她的小女儿建立了友谊,也起头了小我的摸索之旅,并获得了更大的归属感。
  1. Video
  2. ID                                       : 1
  3. ID in the original source medium         : 4113 (0x1011)
  4. Format                                   : AVC
  5. Format/Info                              : Advanced Video Codec
  6. Format profile                           : [email protected]
  7. Format settings                          : CABAC / 4 Ref Frames
  8. Format settings, CABAC                   : Yes
  9. Format settings, Reference frames        : 4 frames
  10. Codec ID                                 : V_MPEG4/ISO/AVC
  11. Duration                                 : 2 h 18 min
  12. Bit rate mode                            : Variable
  13. Bit rate                                 : 30.0 Mb/s
  14. Maximum bit rate                         : 35.0 Mb/s
  15. Width                                    : 1 920 pixels
  16. Height                                   : 1 080 pixels
  17. Display aspect ratio                     : 16:9
  18. Frame rate mode                          : Constant
  19. Frame rate                               : 23.976 (24000/1001/189150) FPS
  20. Color space                              : YUV
  21. Chroma subsampling                       : 4:2:0
  22. Bit depth                                : 8 bits
  23. Scan type                                : Progressive
  24. Bits/(Pixel*Frame)                       : 0.603
  25. Stream size                              : 29.1 GiB (85%)
  26. Language                                 : English
  27. Default                                  : No
  28. Forced                                   : No
  29. Original source medium                   : Blu-ray
  30. Audio #1
  31. ID                                       : 2
  32. ID in the original source medium         : 4352 (0x1100)
  33. Format                                   : DTS XLL
  34. Format/Info                              : Digital Theater Systems
  35. Commercial name                          : DTS-HD Master Audio
  36. Codec ID                                 : A_DTS
  37. Duration                                 : 2 h 18 min
  38. Bit rate mode                            : Variable
  39. Bit rate                                 : 3 412 kb/s
  40. Channel(s)                               : 6 channels
  41. Channel layout                           : C L R Ls Rs LFE
  42. Sampling rate                            : 48.0 kHz
  43. Frame rate                               : 93.750 FPS (512 SPF)
  44. Bit depth                                : 24 bits
  45. Compression mode                         : Lossless
  46. Stream size                              : 3.31 GiB (10%)
  47. Title                                    : DTS-HD MA 5.1
  48. Language                                 : English
  49. Default                                  : Yes
  50. Forced                                   : No
  51. Original source medium                   : Blu-ray
  52. Audio #2
  53. ID                                       : 3
  54. ID in the original source medium         : 4353 (0x1101)
  55. Format                                   : DTS
  56. Format/Info                              : Digital Theater Systems
  57. Codec ID                                 : A_DTS
  58. Duration                                 : 2 h 18 min
  59. Bit rate mode                            : Constant
  60. Bit rate                                 : 768 kb/s
  61. Channel(s)                               : 6 channels
  62. Channel layout                           : C L R Ls Rs LFE
  63. Sampling rate                            : 48.0 kHz
  64. Frame rate                               : 93.750 FPS (512 SPF)
  65. Bit depth                                : 24 bits
  66. Compression mode                         : Lossy
  67. Stream size                              : 763 MiB (2%)
  68. Title                                    : DTS 5.1
  69. Language                                 : Spanish
  70. Default                                  : No
  71. Forced                                   : No
  72. Original source medium                   : Blu-ray
  73. Audio #3
  74. ID                                       : 4
  75. ID in the original source medium         : 4354 (0x1102)
  76. Format                                   : DTS
  77. Format/Info                              : Digital Theater Systems
  78. Codec ID                                 : A_DTS
  79. Duration                                 : 2 h 18 min
  80. Bit rate mode                            : Constant
  81. Bit rate                                 : 768 kb/s
  82. Channel(s)                               : 6 channels
  83. Channel layout                           : C L R Ls Rs LFE
  84. Sampling rate                            : 48.0 kHz
  85. Frame rate                               : 93.750 FPS (512 SPF)
  86. Bit depth                                : 24 bits
  87. Compression mode                         : Lossy
  88. Stream size                              : 763 MiB (2%)
  89. Title                                    : DTS 5.1
  90. Language                                 : French
  91. Default                                  : No
  92. Forced                                   : No
  93. Original source medium                   : Blu-ray
  94. Audio #4
  95. ID                                       : 5
  96. ID in the original source medium         : 4355 (0x1103)
  97. Format                                   : AC-3
  98. Format/Info                              : Audio Coding 3
  99. Commercial name                          : Dolby Digital
  100. Codec ID                                 : A_AC3
  101. Duration                                 : 2 h 18 min
  102. Bit rate mode                            : Constant
  103. Bit rate                                 : 192 kb/s
  104. Channel(s)                               : 2 channels
  105. Channel layout                           : L R
  106. Sampling rate                            : 48.0 kHz
  107. Frame rate                               : 31.250 FPS (1536 SPF)
  108. Compression mode                         : Lossy
  109. Stream size                              : 191 MiB (0%)
  110. Title                                    : DD 2.0
  111. Language                                 : English
  112. Service kind                             : Complete Main
  113. Default                                  : No
  114. Forced                                   : No
  115. Original source medium                   : Blu-ray
  116. Text #1
  117. ID                                       : 6
  118. Format                                   : UTF-8
  119. Codec ID                                 : S_TEXT/UTF8
  120. Codec ID/Info                            : UTF-8 Plain Text
  121. Duration                                 : 2 h 9 min
  122. Bit rate                                 : 41 b/s
  123. Count of elements                        : 1245
  124. Stream size                              : 39.3 KiB (0%)
  125. Title                                    : SRT
  126. Language                                 : English
  127. Default                                  : Yes
  128. Forced                                   : No
  129. Text #2
  130. ID                                       : 7
  131. ID in the original source medium         : 4608 (0x1200)
  132. Format                                   : PGS
  133. Muxing mode                              : zlib
  134. Codec ID                                 : S_HDMV/PGS
  135. Codec ID/Info                            : Picture based subtitle format used on BDs/HD-DVDs
  136. Duration                                 : 2 h 11 min
  137. Bit rate                                 : 32.4 kb/s
  138. Count of elements                        : 3120
  139. Stream size                              : 30.4 MiB (0%)
  140. Language                                 : English
  141. Default                                  : No
  142. Forced                                   : No
  143. Original source medium                   : Blu-ray
  144. Text #3
  145. ID                                       : 8
  146. ID in the original source medium         : 4609 (0x1201)
  147. Format                                   : PGS
  148. Muxing mode                              : zlib
  149. Codec ID                                 : S_HDMV/PGS
  150. Codec ID/Info                            : Picture based subtitle format used on BDs/HD-DVDs
  151. Duration                                 : 2 h 16 min
  152. Bit rate                                 : 31.5 kb/s
  153. Count of elements                        : 3632
  154. Stream size                              : 30.8 MiB (0%)
  155. Language                                 : Spanish
  156. Default                                  : No
  157. Forced                                   : No
  158. Original source medium                   : Blu-ray
  159. Text #4
  160. ID                                       : 9
  161. ID in the original source medium         : 4610 (0x1202)
  162. Format                                   : PGS
  163. Muxing mode                              : zlib
  164. Codec ID                                 : S_HDMV/PGS
  165. Codec ID/Info                            : Picture based subtitle format used on BDs/HD-DVDs
  166. Duration                                 : 2 h 17 min
  167. Bit rate                                 : 23.2 kb/s
  168. Count of elements                        : 2232
  169. Stream size                              : 22.8 MiB (0%)
  170. Language                                 : French
  171. Default                                  : No
  172. Forced                                   : No
  173. Original source medium                   : Blu-ray
  174. Text #5
  175. ID                                       : 10
  176. ID in the original source medium         : 4611 (0x1203)
  177. Format                                   : PGS
  178. Muxing mode                              : zlib
  179. Codec ID                                 : S_HDMV/PGS
  180. Codec ID/Info                            : Picture based subtitle format used on BDs/HD-DVDs
  181. Duration                                 : 2 h 16 min
  182. Bit rate                                 : 5 964 b/s
  183. Count of elements                        : 556
  184. Stream size                              : 5.82 MiB (0%)
  185. Language                                 : Spanish
  186. Default                                  : No
  187. Forced                                   : No
  188. Original source medium                   : Blu-ray
  189. Text #6
  190. ID                                       : 11
  191. ID in the original source medium         : 4612 (0x1204)
  192. Format                                   : PGS
  193. Muxing mode                              : zlib
  194. Codec ID                                 : S_HDMV/PGS
  195. Codec ID/Info                            : Picture based subtitle format used on BDs/HD-DVDs
  196. Duration                                 : 2 h 17 min
  197. Bit rate                                 : 249 b/s
  198. Count of elements                        : 28
  199. Stream size                              : 251 KiB (0%)
  200. Language                                 : French
  201. Default                                  : No
  202. Forced                                   : No
  203. Original source medium                   : Blu-ray
  204. Menu
  205. 00:00:00.000                             : en:Chapter 01
  206. 00:07:50.428                             : en:Chapter 02
  207. 00:12:56.942                             : en:Chapter 03
  208. 00:22:17.002                             : en:Chapter 04
  209. 00:32:23.858                             : en:Chapter 05
  210. 00:37:45.554                             : en:Chapter 06
  211. 00:44:02.389                             : en:Chapter 07
  212. 00:49:05.525                             : en:Chapter 08
  213. 00:57:51.342                             : en:Chapter 09
  214. 01:03:19.212                             : en:Chapter 10
  215. 01:08:21.722                             : en:Chapter 11
  216. 01:16:05.936                             : en:Chapter 12
  217. 01:25:03.973                             : en:Chapter 13
  218. 01:32:16.280                             : en:Chapter 14
  219. 01:39:18.827                             : en:Chapter 15
  220. 01:45:27.195                             : en:Chapter 16
  221. 01:51:43.697                             : en:Chapter 17
  222. 02:00:57.124                             : en:Chapter 18
  223. 02:05:31.398                             : en:Chapter 19
  224. 02:12:08.503                             : en:Chapter 20
复制代码







                                       
                                       

                                       
                                       
                                       




回复

使用道具 举报

懒得打字嘛,点击右侧快捷回复 【右侧内容,后台自定义】
您需要登录后才可以回帖 登录 | 立即加入

本版积分规则

Archiver|小黑屋| 蓝光电影网 |网站地图

Copyright © 2021 Comsenz Inc. Powered by 蓝光电影网

蓝光电影网

本站内容由用户自主分享和转载自互联网,转载目的在于传递更多信息,并不代表本网赞同其观点和对其真实性负责。

如有侵权、违反国家法律政策行为,请联系我们,我们会第一时间及时清除和处理!

举报反馈邮箱:[email protected]

快速回复 返回顶部 返回列表