找回密码

查看: 2451|回复: 0

[喜剧] 等待古夫曼 Waiting.for.Guffman.1996.1080p.BluRay.REMUX.AVC.DTS-HD.MA.2.0-FGT 24.60GB

[复制链接]
蓝光币
1974
发表于 2017-12-21 10:47:30 | 显示全部楼层 |阅读模式
123733pjjbz4j4mcc3sjqq.jpg
◎译  名 期待古夫曼
◎片  名 期待古夫曼 Waiting for Guffman
◎年  代 1996
◎国  家 美国
◎类  别 笑剧
◎语  言 英语
◎上映日期 1996-08-21
◎IMDb评分7.6/10 from 23,573 users
◎IMDb链接http://www.imdb.com/title/tt0118111/
◎豆瓣评分 7.0/10 from 62 users
◎豆瓣链接 https://movie.douban.com/subject/1779759/
◎片  长 84 分钟
◎导  演 克里斯托弗·格斯特
◎主  演 黛博拉·提克 Deborah Theaker
      迈克尔·希区柯克 Michael Hitchcock
      Scott Williamson
      拉里·米勒 Larry Miller
      唐·雷克 Don Lake

◎简  介 

  密苏里州的布雷恩小镇,正为该镇150周年数念的庆典活动预备,一位很是,很是,很是过气的百老汇导演考基负责召集一群专业演员,表演一出记载该镇历史的戏剧。他对这部名为《红、白与布雷恩小镇》的剧作寄与厚望,并约请了百老汇的建造人古夫曼师长,前来观赏此剧的首映,他相信这部剧将是他重回百老汇的跳板。可是这一群尽力不足却天赋不敷的演员聚在一路后,又会出现什么样的故事呢......
  本片是导演克里斯多弗·盖斯特1996年的作品,上映后在批评界的大受好评。获得了1998年自力精神奖最好影片、最好男配角与最好剧本三项提名。



  1. Video
  2. ID             : 1
  3. Format           : AVC
  4. Format/Info          : Advanced Video Codec
  5. Format profile         : [email]High@L4.1[/email]
  6. Format settings, CABAC       : Yes
  7. Format settings, ReFrames      : 4 frames
  8. Codec ID           : V_MPEG4/ISO/AVC
  9. Duration           : 1 h 23 min
  10. Bit rate mode          : Variable
  11. Maximum bit rate         : 38.0 Mb/s
  12. Width            : 1 920 pixels
  13. Height           : 1 080 pixels
  14. Display aspect ratio       : 16:9
  15. Frame rate mode        : Constant
  16. Frame rate           : 23.976 (24000/1001) FPS
  17. Color space          : YUV
  18. Chroma subsampling       : 4:2:0
  19. Bit depth          : 8 bits
  20. Scan type          : Progressive
  21. Title            : Waiting.for.Guffman.1996.1080p.BluRay.REMUX.AVC.DTS-HD.MA.2.0-FGT
  22. Language           : English
  23. Default            : No
  24. Forced           : No

  25. Audio #1
  26. ID             : 2
  27. Format           : DTS
  28. Format/Info          : Digital Theater Systems
  29. Format profile         : MA / Core
  30. Mode             : 16
  31. Format settings, Endianness    : Big
  32. Codec ID           : A_DTS
  33. Duration           : 1 h 23 min
  34. Bit rate mode          : Variable / Constant
  35. Bit rate           : Unknown / 1 509 kb/s
  36. Channel(s)           : 2 channels
  37. Channel positions        : Front: L R
  38. Sampling rate          : 48.0 kHz
  39. Frame rate           : 93.750 FPS (512 spf)
  40. Bit depth          : 24 bits
  41. Compression mode         : Lossless / Lossy
  42. Title            : Waiting.for.Guffman.1996.1080p.BluRay.REMUX.AVC.DTS-HD.MA.2.0-FGT
  43. Language           : English
  44. Default            : Yes
  45. Forced           : No

  46. Audio #2
  47. ID             : 3
  48. Format           : DTS
  49. Format/Info          : Digital Theater Systems
  50. Mode             : 16
  51. Format settings, Endianness    : Big
  52. Codec ID           : A_DTS
  53. Duration           : 1 h 23 min
  54. Bit rate mode          : Constant
  55. Bit rate           : 1 509 kb/s
  56. Channel(s)           : 2 channels
  57. Channel positions        : Front: L R
  58. Sampling rate          : 48.0 kHz
  59. Frame rate           : 93.750 FPS (512 spf)
  60. Bit depth          : 24 bits
  61. Compression mode         : Lossy
  62. Stream size          : 902 MiB (4%)
  63. Title            : Waiting.for.Guffman.1996.1080p.BluRay.REMUX.AVC.DTS-HD.MA.2.0-FGT
  64. Language           : English
  65. Default            : No
  66. Forced           : No

  67. Audio #3
  68. ID             : 4
  69. Format           : DTS
  70. Format/Info          : Digital Theater Systems
  71. Format profile         : MA / Core
  72. Mode             : 16
  73. Format settings, Endianness    : Big
  74. Codec ID           : A_DTS
  75. Duration           : 1 h 23 min
  76. Bit rate mode          : Variable / Constant
  77. Bit rate           : Unknown / 1 509 kb/s
  78. Channel(s)           : 2 channels
  79. Channel positions        : Front: L R
  80. Sampling rate          : 48.0 kHz
  81. Frame rate           : 93.750 FPS (512 spf)
  82. Bit depth          : 24 bits
  83. Compression mode         : Lossless / Lossy
  84. Title            : Waiting.for.Guffman.1996.1080p.BluRay.REMUX.AVC.DTS-HD.MA.2.0-FGT
  85. Language           : English
  86. Default            : No
  87. Forced           : No

  88. Audio #4
  89. ID             : 5
  90. Format           : DTS
  91. Format/Info          : Digital Theater Systems
  92. Mode             : 16
  93. Format settings, Endianness    : Big
  94. Codec ID           : A_DTS
  95. Duration           : 1 h 23 min
  96. Bit rate mode          : Constant
  97. Bit rate           : 1 509 kb/s
  98. Channel(s)           : 2 channels
  99. Channel positions        : Front: L R
  100. Sampling rate          : 48.0 kHz
  101. Frame rate           : 93.750 FPS (512 spf)
  102. Bit depth          : 24 bits
  103. Compression mode         : Lossy
  104. Stream size          : 902 MiB (4%)
  105. Title            : Waiting.for.Guffman.1996.1080p.BluRay.REMUX.AVC.DTS-HD.MA.2.0-FGT
  106. Language           : English
  107. Default            : No
  108. Forced           : No

  109. Text
  110. ID             : 6
  111. Format           : PGS
  112. Muxing mode          : zlib
  113. Codec ID           : S_HDMV/PGS
  114. Codec ID/Info          : Picture based subtitle format used on BDs/HD-DVDs
  115. Title            : English-PGS
  116. Language           : English
  117. Default            : Yes
  118. Forced           : No

  119. Menu
  120. 00:00:00.000         : en:Chapter 01
  121. 00:02:02.122         : en:Chapter 02
  122. 00:05:26.951         : en:Chapter 03
  123. 00:09:02.625         : en:Chapter 04
  124. 00:10:52.902         : en:Chapter 05
  125. 00:17:03.188         : en:Chapter 06
  126. 00:19:55.110         : en:Chapter 07
  127. 00:22:41.735         : en:Chapter 08
  128. 00:24:59.289         : en:Chapter 09
  129. 00:28:55.442         : en:Chapter 10
  130. 00:31:32.307         : en:Chapter 11
  131. 00:35:31.045         : en:Chapter 12
  132. 00:37:57.316         : en:Chapter 13
  133. 00:42:01.644         : en:Chapter 14
  134. 00:44:38.467         : en:Chapter 15
  135. 00:46:17.483         : en:Chapter 16
  136. 00:49:26.421         : en:Chapter 17
  137. 00:52:20.428         : en:Chapter 18
  138. 00:55:02.215         : en:Chapter 19
  139. 00:58:13.156         : en:Chapter 20
  140. 01:00:25.872         : en:Chapter 21
  141. 01:02:04.470         : en:Chapter 22
  142. 01:05:10.615         : en:Chapter 23
  143. 01:07:27.376         : en:Chapter 24
  144. 01:09:08.936         : en:Chapter 25
  145. 01:12:30.596         : en:Chapter 26
  146. 01:15:27.981         : en:Chapter 27
  147. 01:17:19.468         : en:Chapter 28



复制代码
复制代码
123733q9ni878f1zn1291f.jpg 123733abw50b6fkc4nuw2z.jpg 123733bttg8t3tztx49hx8.jpg 123733yd9d8nzd3lwnw4ep.jpg 123733sbsl09l97x9ltk2l.jpg 123733uff21dmew6iw2emr.jpg





回复

使用道具 举报

懒得打字嘛,点击右侧快捷回复 【右侧内容,后台自定义】
您需要登录后才可以回帖 登录 | 立即加入

本版积分规则

Archiver| |网站地图

Copyright © 2024 Comsenz Inc. Powered by 蓝光电影网

本站内容由用户自主分享和转载自互联网,转载目的在于传递更多信息,并不代表本网赞同其观点和对其真实性负责。

如有侵权、违反国家法律政策行为,请联系我们,我们会第一时间及时清除和处理!

举报反馈邮箱:4k1080.com@gmail.com

快速回复 返回顶部 返回列表