找回密码

蓝光电影网

查看: 290|回复: 0

[惊悚] 屏住呼吸2/别呼吸2 Dont.Breathe.2.2021.1080p.BluRay.REMUX.AVC.DTS-HD.MA.TrueHD.7.1.Atmos-FGT 27.34GB

[复制链接]
蓝光币
682
发表于 2021-10-26 18:22:04 | 显示全部楼层 |阅读模式


◎译  名 屏住呼吸2/别呼吸2/临时停止呼吸2(台)/禁室杀戮2(港)
◎片  名 Don't Breathe 2
◎年  代 2021
◎产  地 美国,塞尔维亚
◎类  别 惊悚 / 可骇
◎语  言 英语
◎上映日期 2021-08-13(美国)
◎豆瓣评分 6.5/10 from 18111 users
◎豆瓣链接 https://movie.douban.com/subject/26915921/
◎片  长 98分钟
◎导  演 罗多·赛亚格斯 Rodo Sayagues
◎编  剧 费德·阿尔瓦雷兹 Fede Alvarez / 罗多·赛亚格斯 Rodo Sayagues
◎主  演 史蒂芬·朗 Stephen Lang
       布兰登·萨克斯顿 Brendan Sexton III
       马德琳·格雷斯 Madelyn Grace
       罗奇·威廉姆斯 Rocci Williams
       斯蒂芬妮·阿西拉 Stephanie Arcila
       鲍比·斯科菲尔德 Bobby Schofield
       戴安娜·巴尼科娃 Diaana Babnicova
       亚当·扬 Adam Young
       克里斯蒂安·泽吉亚 Christian Zagia
       罗恩·罗格尔 Ron Rogell
       菲奥娜·奥肖内西 Fiona O'Shaughnessy
◎标  签 惊悚 | 犯罪 | 美国 | 悬疑 | 2021 | 可骇 | 美国电影 | 电影
◎简  介


  《屏住呼吸1》编剧罗多·赛亚格斯执导,并同前作导演费德·阿尔瓦雷兹一路写剧本,史蒂芬·朗、罗奇·威廉姆斯、斯蒂芬妮·阿西拉、鲍比·斯科菲尔德、亚当·扬等主演。
  
  故事发生在最初致命的入室抢劫以后的几年,眼盲的退伍老兵诺曼过着安静的生活,直到曩昔的罪行起头找上他。
  1. Video
  2. ID                                       : 1
  3. ID in the original source medium         : 4113 (0x1011)
  4. Format                                   : AVC
  5. Format/Info                              : Advanced Video Codec
  6. Format profile                           : [email protected]
  7. Format settings                          : CABAC / 2 Ref Frames
  8. Format settings, CABAC                   : Yes
  9. Format settings, Reference frames        : 2 frames
  10. Format settings, GOP                     : M=1, N=10
  11. Codec ID                                 : V_MPEG4/ISO/AVC
  12. Duration                                 : 1 h 38 min
  13. Bit rate mode                            : Variable
  14. Bit rate                                 : 24.8 Mb/s
  15. Width                                    : 1 920 pixels
  16. Height                                   : 1 080 pixels
  17. Display aspect ratio                     : 16:9
  18. Frame rate mode                          : Constant
  19. Frame rate                               : 23.976 (24000/1001/189150) FPS
  20. Color space                              : YUV
  21. Chroma subsampling                       : 4:2:0
  22. Bit depth                                : 8 bits
  23. Scan type                                : Progressive
  24. Bits/(Pixel*Frame)                       : 0.500
  25. Stream size                              : 17.1 GiB (62%)
  26. Language                                 : English
  27. Default                                  : No
  28. Forced                                   : No
  29. Original source medium                   : Blu-ray
  30. Audio #1
  31. ID                                       : 2
  32. ID in the original source medium         : 4352 (0x1100)
  33. Format                                   : MLP FBA 16-ch
  34. Format/Info                              : Meridian Lossless Packing FBA with 16-channel presentation
  35. Commercial name                          : Dolby TrueHD with Dolby Atmos
  36. Codec ID                                 : A_TRUEHD
  37. Duration                                 : 1 h 38 min
  38. Bit rate mode                            : Variable
  39. Bit rate                                 : 4 174 kb/s
  40. Maximum bit rate                         : 7 536 kb/s
  41. Channel(s)                               : 8 channels
  42. Channel layout                           : L R C LFE Ls Rs Lb Rb
  43. Sampling rate                            : 48.0 kHz
  44. Frame rate                               : 1 200.000 FPS (40 SPF)
  45. Bit depth                                : 24 bits
  46. Compression mode                         : Lossless
  47. Stream size                              : 2.86 GiB (10%)
  48. Title                                    : TrueHD 7.1 Atmos
  49. Language                                 : English
  50. Default                                  : Yes
  51. Forced                                   : No
  52. Original source medium                   : Blu-ray
  53. Number of dynamic objects                : 11
  54. Bed channel count                        : 1 channel
  55. Bed channel configuration                : LFE
  56. Audio #2
  57. ID                                       : 3
  58. Format                                   : DTS XLL
  59. Format/Info                              : Digital Theater Systems
  60. Commercial name                          : DTS-HD Master Audio
  61. Codec ID                                 : A_DTS
  62. Duration                                 : 1 h 38 min
  63. Bit rate mode                            : Variable
  64. Bit rate                                 : 3 981 kb/s
  65. Channel(s)                               : 8 channels
  66. Channel layout                           : C L R LFE Lb Rb Lss Rss
  67. Sampling rate                            : 48.0 kHz
  68. Frame rate                               : 93.750 FPS (512 SPF)
  69. Bit depth                                : 24 bits
  70. Compression mode                         : Lossless
  71. Stream size                              : 2.73 GiB (10%)
  72. Title                                    : DTS-HD MA 7.1
  73. Language                                 : English
  74. Default                                  : No
  75. Forced                                   : No
  76. Audio #3
  77. ID                                       : 4
  78. ID in the original source medium         : 4352 (0x1100)
  79. Format                                   : AC-3
  80. Format/Info                              : Audio Coding 3
  81. Commercial name                          : Dolby Digital
  82. Codec ID                                 : A_AC3
  83. Duration                                 : 1 h 38 min
  84. Bit rate mode                            : Constant
  85. Bit rate                                 : 640 kb/s
  86. Channel(s)                               : 6 channels
  87. Channel layout                           : L R C LFE Ls Rs
  88. Sampling rate                            : 48.0 kHz
  89. Frame rate                               : 31.250 FPS (1536 SPF)
  90. Compression mode                         : Lossy
  91. Stream size                              : 450 MiB (2%)
  92. Title                                    : DD 5.1
  93. Language                                 : English
  94. Service kind                             : Complete Main
  95. Default                                  : No
  96. Forced                                   : No
  97. Original source medium                   : Blu-ray
  98. Audio #4
  99. ID                                       : 5
  100. ID in the original source medium         : 4353 (0x1101)
  101. Format                                   : AC-3
  102. Format/Info                              : Audio Coding 3
  103. Commercial name                          : Dolby Digital
  104. Codec ID                                 : A_AC3
  105. Duration                                 : 1 h 38 min
  106. Bit rate mode                            : Constant
  107. Bit rate                                 : 640 kb/s
  108. Channel(s)                               : 6 channels
  109. Channel layout                           : L R C LFE Ls Rs
  110. Sampling rate                            : 48.0 kHz
  111. Frame rate                               : 31.250 FPS (1536 SPF)
  112. Compression mode                         : Lossy
  113. Stream size                              : 450 MiB (2%)
  114. Title                                    : DD 5.1
  115. Language                                 : English
  116. Service kind                             : Complete Main
  117. Default                                  : No
  118. Forced                                   : No
  119. Original source medium                   : Blu-ray
  120. Audio #5
  121. ID                                       : 6
  122. ID in the original source medium         : 4354 (0x1102)
  123. Format                                   : AC-3
  124. Format/Info                              : Audio Coding 3
  125. Commercial name                          : Dolby Digital
  126. Codec ID                                 : A_AC3
  127. Duration                                 : 1 h 38 min
  128. Bit rate mode                            : Constant
  129. Bit rate                                 : 640 kb/s
  130. Channel(s)                               : 6 channels
  131. Channel layout                           : L R C LFE Ls Rs
  132. Sampling rate                            : 48.0 kHz
  133. Frame rate                               : 31.250 FPS (1536 SPF)
  134. Compression mode                         : Lossy
  135. Stream size                              : 450 MiB (2%)
  136. Title                                    : DD 5.1
  137. Language                                 : French
  138. Service kind                             : Complete Main
  139. Default                                  : No
  140. Forced                                   : No
  141. Original source medium                   : Blu-ray
  142. Audio #6
  143. ID                                       : 7
  144. ID in the original source medium         : 4355 (0x1103)
  145. Format                                   : AC-3
  146. Format/Info                              : Audio Coding 3
  147. Commercial name                          : Dolby Digital
  148. Codec ID                                 : A_AC3
  149. Duration                                 : 1 h 38 min
  150. Bit rate mode                            : Constant
  151. Bit rate                                 : 640 kb/s
  152. Channel(s)                               : 6 channels
  153. Channel layout                           : L R C LFE Ls Rs
  154. Sampling rate                            : 48.0 kHz
  155. Frame rate                               : 31.250 FPS (1536 SPF)
  156. Compression mode                         : Lossy
  157. Stream size                              : 450 MiB (2%)
  158. Title                                    : DD 5.1
  159. Language                                 : French
  160. Service kind                             : Complete Main
  161. Default                                  : No
  162. Forced                                   : No
  163. Original source medium                   : Blu-ray
  164. Audio #7
  165. ID                                       : 8
  166. ID in the original source medium         : 4356 (0x1104)
  167. Format                                   : DTS XLL
  168. Format/Info                              : Digital Theater Systems
  169. Commercial name                          : DTS-HD Master Audio
  170. Codec ID                                 : A_DTS
  171. Duration                                 : 1 h 38 min
  172. Bit rate mode                            : Variable
  173. Bit rate                                 : 2 237 kb/s
  174. Channel(s)                               : 6 channels
  175. Channel layout                           : C L R Ls Rs LFE
  176. Sampling rate                            : 48.0 kHz
  177. Frame rate                               : 93.750 FPS (512 SPF)
  178. Bit depth                                : 16 bits
  179. Compression mode                         : Lossless
  180. Stream size                              : 1.54 GiB (6%)
  181. Title                                    : DTS-HD MA 5.1
  182. Language                                 : Portuguese
  183. Default                                  : No
  184. Forced                                   : No
  185. Original source medium                   : Blu-ray
  186. Audio #8
  187. ID                                       : 9
  188. ID in the original source medium         : 4357 (0x1105)
  189. Format                                   : AC-3
  190. Format/Info                              : Audio Coding 3
  191. Commercial name                          : Dolby Digital
  192. Codec ID                                 : A_AC3
  193. Duration                                 : 1 h 38 min
  194. Bit rate mode                            : Constant
  195. Bit rate                                 : 640 kb/s
  196. Channel(s)                               : 6 channels
  197. Channel layout                           : L R C LFE Ls Rs
  198. Sampling rate                            : 48.0 kHz
  199. Frame rate                               : 31.250 FPS (1536 SPF)
  200. Compression mode                         : Lossy
  201. Stream size                              : 450 MiB (2%)
  202. Title                                    : DD 5.1
  203. Language                                 : Spanish
  204. Service kind                             : Complete Main
  205. Default                                  : No
  206. Forced                                   : No
  207. Original source medium                   : Blu-ray
  208. Audio #9
  209. ID                                       : 10
  210. ID in the original source medium         : 4358 (0x1106)
  211. Format                                   : AC-3
  212. Format/Info                              : Audio Coding 3
  213. Commercial name                          : Dolby Digital
  214. Codec ID                                 : A_AC3
  215. Duration                                 : 1 h 38 min
  216. Bit rate mode                            : Constant
  217. Bit rate                                 : 640 kb/s
  218. Channel(s)                               : 6 channels
  219. Channel layout                           : L R C LFE Ls Rs
  220. Sampling rate                            : 48.0 kHz
  221. Frame rate                               : 31.250 FPS (1536 SPF)
  222. Compression mode                         : Lossy
  223. Stream size                              : 450 MiB (2%)
  224. Title                                    : DD 5.1
  225. Language                                 : Thai
  226. Service kind                             : Complete Main
  227. Default                                  : No
  228. Forced                                   : No
  229. Original source medium                   : Blu-ray
  230. Audio #10
  231. ID                                       : 11
  232. ID in the original source medium         : 4359 (0x1107)
  233. Format                                   : AC-3
  234. Format/Info                              : Audio Coding 3
  235. Commercial name                          : Dolby Digital
  236. Codec ID                                 : A_AC3
  237. Duration                                 : 1 h 38 min
  238. Bit rate mode                            : Constant
  239. Bit rate                                 : 192 kb/s
  240. Channel(s)                               : 2 channels
  241. Channel layout                           : L R
  242. Sampling rate                            : 48.0 kHz
  243. Frame rate                               : 31.250 FPS (1536 SPF)
  244. Compression mode                         : Lossy
  245. Stream size                              : 135 MiB (0%)
  246. Title                                    : DD 2.0
  247. Language                                 : English
  248. Service kind                             : Complete Main
  249. Default                                  : No
  250. Forced                                   : No
  251. Original source medium                   : Blu-ray
  252. Audio #11
  253. ID                                       : 12
  254. ID in the original source medium         : 4360 (0x1108)
  255. Format                                   : AC-3
  256. Format/Info                              : Audio Coding 3
  257. Commercial name                          : Dolby Digital
  258. Codec ID                                 : A_AC3
  259. Duration                                 : 1 h 38 min
  260. Bit rate mode                            : Constant
  261. Bit rate                                 : 192 kb/s
  262. Channel(s)                               : 2 channels
  263. Channel layout                           : L R
  264. Sampling rate                            : 48.0 kHz
  265. Frame rate                               : 31.250 FPS (1536 SPF)
  266. Compression mode                         : Lossy
  267. Stream size                              : 135 MiB (0%)
  268. Title                                    : DD 2.0
  269. Language                                 : English
  270. Service kind                             : Complete Main
  271. Default                                  : No
  272. Forced                                   : No
  273. Original source medium                   : Blu-ray
  274. Text #1
  275. ID                                       : 13
  276. Format                                   : UTF-8
  277. Codec ID                                 : S_TEXT/UTF8
  278. Codec ID/Info                            : UTF-8 Plain Text
  279. Duration                                 : 1 h 26 min
  280. Bit rate                                 : 15 b/s
  281. Count of elements                        : 467
  282. Stream size                              : 9.84 KiB (0%)
  283. Title                                    : SRT
  284. Language                                 : English
  285. Default                                  : Yes
  286. Forced                                   : No
  287. Text #2
  288. ID                                       : 14
  289. ID in the original source medium         : 4608 (0x1200)
  290. Format                                   : PGS
  291. Muxing mode                              : zlib
  292. Codec ID                                 : S_HDMV/PGS
  293. Codec ID/Info                            : Picture based subtitle format used on BDs/HD-DVDs
  294. Duration                                 : 1 h 30 min
  295. Bit rate                                 : 14.9 kb/s
  296. Count of elements                        : 1466
  297. Stream size                              : 9.67 MiB (0%)
  298. Language                                 : English
  299. Default                                  : No
  300. Forced                                   : No
  301. Original source medium                   : Blu-ray
  302. Text #3
  303. ID                                       : 15
  304. ID in the original source medium         : 4609 (0x1201)
  305. Format                                   : PGS
  306. Muxing mode                              : zlib
  307. Codec ID                                 : S_HDMV/PGS
  308. Codec ID/Info                            : Picture based subtitle format used on BDs/HD-DVDs
  309. Duration                                 : 1 h 26 min
  310. Bit rate                                 : 9 894 b/s
  311. Count of elements                        : 986
  312. Stream size                              : 6.15 MiB (0%)
  313. Language                                 : English
  314. Default                                  : No
  315. Forced                                   : No
  316. Original source medium                   : Blu-ray
  317. Text #4
  318. ID                                       : 16
  319. ID in the original source medium         : 4610 (0x1202)
  320. Format                                   : PGS
  321. Muxing mode                              : zlib
  322. Codec ID                                 : S_HDMV/PGS
  323. Codec ID/Info                            : Picture based subtitle format used on BDs/HD-DVDs
  324. Duration                                 : 1 h 36 min
  325. Bit rate                                 : 7 679 b/s
  326. Count of elements                        : 918
  327. Stream size                              : 5.29 MiB (0%)
  328. Language                                 : Chinese
  329. Default                                  : No
  330. Forced                                   : No
  331. Original source medium                   : Blu-ray
  332. Text #5
  333. ID                                       : 17
  334. ID in the original source medium         : 4611 (0x1203)
  335. Format                                   : PGS
  336. Muxing mode                              : zlib
  337. Codec ID                                 : S_HDMV/PGS
  338. Codec ID/Info                            : Picture based subtitle format used on BDs/HD-DVDs
  339. Duration                                 : 1 h 36 min
  340. Bit rate                                 : 7 595 b/s
  341. Count of elements                        : 914
  342. Stream size                              : 5.23 MiB (0%)
  343. Language                                 : Chinese
  344. Default                                  : No
  345. Forced                                   : No
  346. Original source medium                   : Blu-ray
  347. Text #6
  348. ID                                       : 18
  349. ID in the original source medium         : 4612 (0x1204)
  350. Format                                   : PGS
  351. Muxing mode                              : zlib
  352. Codec ID                                 : S_HDMV/PGS
  353. Codec ID/Info                            : Picture based subtitle format used on BDs/HD-DVDs
  354. Duration                                 : 1 h 36 min
  355. Bit rate                                 : 7 190 b/s
  356. Count of elements                        : 916
  357. Stream size                              : 4.95 MiB (0%)
  358. Language                                 : Chinese
  359. Default                                  : No
  360. Forced                                   : No
  361. Original source medium                   : Blu-ray
  362. Text #7
  363. ID                                       : 19
  364. ID in the original source medium         : 4613 (0x1205)
  365. Format                                   : PGS
  366. Muxing mode                              : zlib
  367. Codec ID                                 : S_HDMV/PGS
  368. Codec ID/Info                            : Picture based subtitle format used on BDs/HD-DVDs
  369. Duration                                 : 1 h 36 min
  370. Bit rate                                 : 8 093 b/s
  371. Count of elements                        : 846
  372. Stream size                              : 5.57 MiB (0%)
  373. Language                                 : French
  374. Default                                  : No
  375. Forced                                   : No
  376. Original source medium                   : Blu-ray
  377. Text #8
  378. ID                                       : 20
  379. ID in the original source medium         : 4614 (0x1206)
  380. Format                                   : PGS
  381. Muxing mode                              : zlib
  382. Codec ID                                 : S_HDMV/PGS
  383. Codec ID/Info                            : Picture based subtitle format used on BDs/HD-DVDs
  384. Duration                                 : 1 h 36 min
  385. Bit rate                                 : 9 795 b/s
  386. Count of elements                        : 906
  387. Stream size                              : 6.74 MiB (0%)
  388. Language                                 : Indonesian
  389. Default                                  : No
  390. Forced                                   : No
  391. Original source medium                   : Blu-ray
  392. Text #9
  393. ID                                       : 21
  394. ID in the original source medium         : 4615 (0x1207)
  395. Format                                   : PGS
  396. Muxing mode                              : zlib
  397. Codec ID                                 : S_HDMV/PGS
  398. Codec ID/Info                            : Picture based subtitle format used on BDs/HD-DVDs
  399. Duration                                 : 1 h 36 min
  400. Bit rate                                 : 7 309 b/s
  401. Count of elements                        : 924
  402. Stream size                              : 5.03 MiB (0%)
  403. Language                                 : Korean
  404. Default                                  : No
  405. Forced                                   : No
  406. Original source medium                   : Blu-ray
  407. Text #10
  408. ID                                       : 22
  409. ID in the original source medium         : 4616 (0x1208)
  410. Format                                   : PGS
  411. Muxing mode                              : zlib
  412. Codec ID                                 : S_HDMV/PGS
  413. Codec ID/Info                            : Picture based subtitle format used on BDs/HD-DVDs
  414. Duration                                 : 1 h 36 min
  415. Bit rate                                 : 10.4 kb/s
  416. Count of elements                        : 910
  417. Stream size                              : 7.16 MiB (0%)
  418. Language                                 : Malay
  419. Default                                  : No
  420. Forced                                   : No
  421. Original source medium                   : Blu-ray
  422. Text #11
  423. ID                                       : 23
  424. ID in the original source medium         : 4617 (0x1209)
  425. Format                                   : PGS
  426. Muxing mode                              : zlib
  427. Codec ID                                 : S_HDMV/PGS
  428. Codec ID/Info                            : Picture based subtitle format used on BDs/HD-DVDs
  429. Duration                                 : 1 h 36 min
  430. Bit rate                                 : 9 196 b/s
  431. Count of elements                        : 890
  432. Stream size                              : 6.33 MiB (0%)
  433. Language                                 : Portuguese
  434. Default                                  : No
  435. Forced                                   : No
  436. Original source medium                   : Blu-ray
  437. Text #12
  438. ID                                       : 24
  439. ID in the original source medium         : 4617 (0x1209)
  440. Format                                   : PGS
  441. Muxing mode                              : zlib
  442. Codec ID                                 : S_HDMV/PGS
  443. Codec ID/Info                            : Picture based subtitle format used on BDs/HD-DVDs
  444. Duration                                 : 1 h 36 min
  445. Bit rate                                 : 85 b/s
  446. Count of elements                        : 8
  447. Stream size                              : 60.0 KiB (0%)
  448. Language                                 : Portuguese
  449. Default                                  : No
  450. Forced                                   : No
  451. Original source medium                   : Blu-ray
  452. Text #13
  453. ID                                       : 25
  454. ID in the original source medium         : 4618 (0x120A)
  455. Format                                   : PGS
  456. Muxing mode                              : zlib
  457. Codec ID                                 : S_HDMV/PGS
  458. Codec ID/Info                            : Picture based subtitle format used on BDs/HD-DVDs
  459. Duration                                 : 1 h 36 min
  460. Bit rate                                 : 9 040 b/s
  461. Count of elements                        : 896
  462. Stream size                              : 6.22 MiB (0%)
  463. Language                                 : Spanish
  464. Default                                  : No
  465. Forced                                   : No
  466. Original source medium                   : Blu-ray
  467. Text #14
  468. ID                                       : 26
  469. ID in the original source medium         : 4618 (0x120A)
  470. Format                                   : PGS
  471. Muxing mode                              : zlib
  472. Codec ID                                 : S_HDMV/PGS
  473. Codec ID/Info                            : Picture based subtitle format used on BDs/HD-DVDs
  474. Duration                                 : 1 h 36 min
  475. Bit rate                                 : 55 b/s
  476. Count of elements                        : 4
  477. Stream size                              : 38.8 KiB (0%)
  478. Language                                 : Spanish
  479. Default                                  : No
  480. Forced                                   : No
  481. Original source medium                   : Blu-ray
  482. Text #15
  483. ID                                       : 27
  484. ID in the original source medium         : 4619 (0x120B)
  485. Format                                   : PGS
  486. Muxing mode                              : zlib
  487. Codec ID                                 : S_HDMV/PGS
  488. Codec ID/Info                            : Picture based subtitle format used on BDs/HD-DVDs
  489. Duration                                 : 1 h 36 min
  490. Bit rate                                 : 8 157 b/s
  491. Count of elements                        : 914
  492. Stream size                              : 5.62 MiB (0%)
  493. Language                                 : Thai
  494. Default                                  : No
  495. Forced                                   : No
  496. Original source medium                   : Blu-ray
  497. Text #16
  498. ID                                       : 28
  499. ID in the original source medium         : 4620 (0x120C)
  500. Format                                   : PGS
  501. Muxing mode                              : zlib
  502. Codec ID                                 : S_HDMV/PGS
  503. Codec ID/Info                            : Picture based subtitle format used on BDs/HD-DVDs
  504. Duration                                 : 1 h 36 min
  505. Bit rate                                 : 71 b/s
  506. Count of elements                        : 6
  507. Stream size                              : 50.6 KiB (0%)
  508. Language                                 : French
  509. Default                                  : No
  510. Forced                                   : No
  511. Original source medium                   : Blu-ray
  512. Text #17
  513. ID                                       : 29
  514. ID in the original source medium         : 4620 (0x120C)
  515. Format                                   : PGS
  516. Muxing mode                              : zlib
  517. Codec ID                                 : S_HDMV/PGS
  518. Codec ID/Info                            : Picture based subtitle format used on BDs/HD-DVDs
  519. Duration                                 : 1 h 36 min
  520. Bit rate                                 : 71 b/s
  521. Count of elements                        : 6
  522. Stream size                              : 50.6 KiB (0%)
  523. Language                                 : French
  524. Default                                  : No
  525. Forced                                   : No
  526. Original source medium                   : Blu-ray
  527. Text #18
  528. ID                                       : 30
  529. ID in the original source medium         : 4621 (0x120D)
  530. Format                                   : PGS
  531. Muxing mode                              : zlib
  532. Codec ID                                 : S_HDMV/PGS
  533. Codec ID/Info                            : Picture based subtitle format used on BDs/HD-DVDs
  534. Duration                                 : 1 h 31 min
  535. Bit rate                                 : 37.5 kb/s
  536. Count of elements                        : 2317
  537. Stream size                              : 24.6 MiB (0%)
  538. Title                                    : COMMENTARY
  539. Language                                 : English
  540. Default                                  : No
  541. Forced                                   : No
  542. Original source medium                   : Blu-ray
  543. Text #19
  544. ID                                       : 31
  545. ID in the original source medium         : 4622 (0x120E)
  546. Format                                   : PGS
  547. Muxing mode                              : zlib
  548. Codec ID                                 : S_HDMV/PGS
  549. Codec ID/Info                            : Picture based subtitle format used on BDs/HD-DVDs
  550. Duration                                 : 1 h 31 min
  551. Bit rate                                 : 28.7 kb/s
  552. Count of elements                        : 2050
  553. Stream size                              : 18.8 MiB (0%)
  554. Title                                    : COMMENTARY
  555. Language                                 : Chinese
  556. Default                                  : No
  557. Forced                                   : No
  558. Original source medium                   : Blu-ray
  559. Text #20
  560. ID                                       : 32
  561. ID in the original source medium         : 4623 (0x120F)
  562. Format                                   : PGS
  563. Muxing mode                              : zlib
  564. Codec ID                                 : S_HDMV/PGS
  565. Codec ID/Info                            : Picture based subtitle format used on BDs/HD-DVDs
  566. Duration                                 : 1 h 31 min
  567. Bit rate                                 : 26.3 kb/s
  568. Count of elements                        : 2050
  569. Stream size                              : 17.2 MiB (0%)
  570. Title                                    : COMMENTARY
  571. Language                                 : Korean
  572. Default                                  : No
  573. Forced                                   : No
  574. Original source medium                   : Blu-ray
  575. Text #21
  576. ID                                       : 33
  577. ID in the original source medium         : 4624 (0x1210)
  578. Format                                   : PGS
  579. Muxing mode                              : zlib
  580. Codec ID                                 : S_HDMV/PGS
  581. Codec ID/Info                            : Picture based subtitle format used on BDs/HD-DVDs
  582. Duration                                 : 1 h 31 min
  583. Bit rate                                 : 32.5 kb/s
  584. Count of elements                        : 1980
  585. Stream size                              : 21.3 MiB (0%)
  586. Title                                    : COMMENTARY
  587. Language                                 : Portuguese
  588. Default                                  : No
  589. Forced                                   : No
  590. Original source medium                   : Blu-ray
  591. Text #22
  592. ID                                       : 34
  593. ID in the original source medium         : 4625 (0x1211)
  594. Format                                   : PGS
  595. Muxing mode                              : zlib
  596. Codec ID                                 : S_HDMV/PGS
  597. Codec ID/Info                            : Picture based subtitle format used on BDs/HD-DVDs
  598. Duration                                 : 1 h 31 min
  599. Bit rate                                 : 32.4 kb/s
  600. Count of elements                        : 2034
  601. Stream size                              : 21.2 MiB (0%)
  602. Title                                    : COMMENTARY
  603. Language                                 : Spanish
  604. Default                                  : No
  605. Forced                                   : No
  606. Original source medium                   : Blu-ray
  607. Text #23
  608. ID                                       : 35
  609. ID in the original source medium         : 4626 (0x1212)
  610. Format                                   : PGS
  611. Muxing mode                              : zlib
  612. Codec ID                                 : S_HDMV/PGS
  613. Codec ID/Info                            : Picture based subtitle format used on BDs/HD-DVDs
  614. Duration                                 : 1 h 31 min
  615. Bit rate                                 : 32.8 kb/s
  616. Count of elements                        : 2050
  617. Stream size                              : 21.5 MiB (0%)
  618. Title                                    : COMMENTARY
  619. Language                                 : Thai
  620. Default                                  : No
  621. Forced                                   : No
  622. Original source medium                   : Blu-ray
  623. Text #24
  624. ID                                       : 36
  625. ID in the original source medium         : 4627 (0x1213)
  626. Format                                   : PGS
  627. Muxing mode                              : zlib
  628. Codec ID                                 : S_HDMV/PGS
  629. Codec ID/Info                            : Picture based subtitle format used on BDs/HD-DVDs
  630. Duration                                 : 1 h 31 min
  631. Bit rate                                 : 66.3 kb/s
  632. Count of elements                        : 3264
  633. Stream size                              : 43.3 MiB (0%)
  634. Title                                    : COMMENTARY
  635. Language                                 : English
  636. Default                                  : No
  637. Forced                                   : No
  638. Original source medium                   : Blu-ray
  639. Text #25
  640. ID                                       : 37
  641. ID in the original source medium         : 4628 (0x1214)
  642. Format                                   : PGS
  643. Muxing mode                              : zlib
  644. Codec ID                                 : S_HDMV/PGS
  645. Codec ID/Info                            : Picture based subtitle format used on BDs/HD-DVDs
  646. Duration                                 : 1 h 30 min
  647. Bit rate                                 : 50.1 kb/s
  648. Count of elements                        : 3190
  649. Stream size                              : 32.6 MiB (0%)
  650. Title                                    : COMMENTARY
  651. Language                                 : Chinese
  652. Default                                  : No
  653. Forced                                   : No
  654. Original source medium                   : Blu-ray
  655. Text #26
  656. ID                                       : 38
  657. ID in the original source medium         : 4629 (0x1215)
  658. Format                                   : PGS
  659. Muxing mode                              : zlib
  660. Codec ID                                 : S_HDMV/PGS
  661. Codec ID/Info                            : Picture based subtitle format used on BDs/HD-DVDs
  662. Duration                                 : 1 h 30 min
  663. Bit rate                                 : 46.1 kb/s
  664. Count of elements                        : 3190
  665. Stream size                              : 29.9 MiB (0%)
  666. Title                                    : COMMENTARY
  667. Language                                 : Korean
  668. Default                                  : No
  669. Forced                                   : No
  670. Original source medium                   : Blu-ray
  671. Text #27
  672. ID                                       : 39
  673. ID in the original source medium         : 4630 (0x1216)
  674. Format                                   : PGS
  675. Muxing mode                              : zlib
  676. Codec ID                                 : S_HDMV/PGS
  677. Codec ID/Info                            : Picture based subtitle format used on BDs/HD-DVDs
  678. Duration                                 : 1 h 30 min
  679. Bit rate                                 : 53.2 kb/s
  680. Count of elements                        : 3105
  681. Stream size                              : 34.6 MiB (0%)
  682. Title                                    : COMMENTARY
  683. Language                                 : Portuguese
  684. Default                                  : No
  685. Forced                                   : No
  686. Original source medium                   : Blu-ray
  687. Text #28
  688. ID                                       : 40
  689. ID in the original source medium         : 4631 (0x1217)
  690. Format                                   : PGS
  691. Muxing mode                              : zlib
  692. Codec ID                                 : S_HDMV/PGS
  693. Codec ID/Info                            : Picture based subtitle format used on BDs/HD-DVDs
  694. Duration                                 : 1 h 30 min
  695. Bit rate                                 : 55.5 kb/s
  696. Count of elements                        : 3190
  697. Stream size                              : 36.0 MiB (0%)
  698. Title                                    : COMMENTARY
  699. Language                                 : Thai
  700. Default                                  : No
  701. Forced                                   : No
  702. Original source medium                   : Blu-ray
  703. Menu
  704. 00:00:00.000                             : en:Chapter 01
  705. 00:04:06.371                             : en:Chapter 02
  706. 00:08:39.352                             : en:Chapter 03
  707. 00:13:10.790                             : en:Chapter 04
  708. 00:19:12.734                             : en:Chapter 05
  709. 00:24:10.532                             : en:Chapter 06
  710. 00:28:03.807                             : en:Chapter 07
  711. 00:31:33.683                             : en:Chapter 08
  712. 00:37:15.107                             : en:Chapter 09
  713. 00:41:25.649                             : en:Chapter 10
  714. 00:45:21.927                             : en:Chapter 11
  715. 00:50:36.992                             : en:Chapter 12
  716. 00:55:42.797                             : en:Chapter 13
  717. 01:02:19.652                             : en:Chapter 14
  718. 01:09:26.537                             : en:Chapter 15
  719. 01:18:19.986                             : en:Chapter 16
复制代码






                                       
                                       

                                       
                                       
                                       




回复

使用道具 举报

懒得打字嘛,点击右侧快捷回复 【右侧内容,后台自定义】
您需要登录后才可以回帖 登录 | 立即加入

本版积分规则

Archiver|小黑屋| 蓝光电影网 |网站地图

Copyright © 2021 Comsenz Inc. Powered by 蓝光电影网

蓝光电影网

本站内容由用户自主分享和转载自互联网,转载目的在于传递更多信息,并不代表本网赞同其观点和对其真实性负责。

如有侵权、违反国家法律政策行为,请联系我们,我们会第一时间及时清除和处理!

举报反馈邮箱:[email protected]

快速回复 返回顶部 返回列表